<?xml version="1.0" standalone="no"?>
<!DOCTYPE svg PUBLIC "-//W3C//DTD SVG 1.1//EN" "http://www.w3.org/Graphics/SVG/1.1/DTD/svg11.dtd">
<svg xmlns="http://www.w3.org/2000/svg">
<metadata>Generated by Fontastic.me</metadata>
<defs>
<font id="untitled-font-3" horiz-adv-x="512">
<font-face font-family="untitled-font-3" units-per-em="512" ascent="480" descent="-32"/>
<missing-glyph horiz-adv-x="512" />

<glyph glyph-name="009-safe-box" unicode="&#114;" d="M486 333l-111 0 0 170c0 5-3 9-8 9l-222 0c-5 0-8-4-8-9l0-170-111 0c-5 0-9-4-9-9l0-281c0-5 4-9 9-9l17 0 0-25c0-5 3-9 8-9l68 0c5 0 9 4 9 9l0 25 256 0 0-25c0-5 4-9 9-9l68 0c5 0 8 4 8 9l0 25 17 0c5 0 9 4 9 9l0 281c0 5-4 9-9 9z m-332 162l204 0 0-162-17 0 0 102c0 5-3 9-8 9l-26 0 0 25c0 5-4 9-8 9l-86 0c-4 0-8-4-8-9l0-25-26 0c-5 0-8-4-8-9l0-102-17 0z m102-94c-24 0-43-19-43-43 0-9 3-18 9-25l-34 0 0 94 25 0c5 0 9 3 9 8l0 26 68 0 0-26c0-5 4-8 9-8l25 0 0-94-34 0c6 7 9 16 9 25 0 24-19 43-43 43z m26-43c0-14-12-25-26-25-14 0-26 11-26 25 0 15 12 26 26 26 14 0 26-11 26-26z m-171-341l-51 0 0 17 51 0z m341 0l-51 0 0 17 51 0z m26 34l-444 0 0 265 444 0z m-52 137c-1 12-6 23-14 33l13 13-12 12-13-13c-9 8-21 12-33 14l0 18-17 0 0-18c-12-2-24-6-33-14l-13 13-12-12 13-13c-8-10-13-21-14-33l-18 0 0-17 18 0c1-12 6-24 14-34l-13-12 12-12 13 12c9-7 21-12 33-13l0-18 17 0 0 18c12 1 24 6 33 13l13-12 12 12-13 12c8 10 13 22 14 34l18 0 0 17z m-68-60c-28 0-51 23-51 51 0 28 23 51 51 51 29 0 52-23 52-51 0-28-23-51-52-51z m-179 34l26 0 0-17-26 0z m-42 0l25 0 0-17-25 0z m-43 0l25 0 0-17-25 0z m85-34l26 0 0-17-26 0z m-42 0l25 0 0-17-25 0z m-43 0l25 0 0-17-25 0z m85-34l26 0 0-17-26 0z m-42 0l25 0 0-17-25 0z m-43 0l25 0 0-17-25 0z m77 384l17 0 0-17-17 0z m153 0l17 0 0-17-17 0z m-94-188l-162 0c-4 0-8-4-8-8l0-86c0-4 4-8 8-8l162 0c5 0 9 4 9 8l0 86c0 4-4 8-9 8z m-8-85l-145 0 0 68 145 0z m136 8c-18 0-34-15-34-34 0-19 16-34 34-34 19 0 35 15 35 34 0 19-16 34-35 34z m0-51c-9 0-17 8-17 17 0 10 8 17 17 17 10 0 17-7 17-17 0-9-7-17-17-17z"/>
<glyph glyph-name="010-magnifying-glass" unicode="&#115;" d="M90 432c-6 0-10-4-10-10 0-6 4-10 10-10 6 0 10 4 10 10 0 6-4 10-10 10z m120-100l-10 0 0 40 10 0c6 0 10-4 10-10 0-6 4-10 10-10 6 0 10 4 10 10 0 17-13 30-30 30l-10 0 0 10c0 6-4 10-10 10-6 0-10-4-10-10l0-10-10 0c-17 0-30-13-30-30l0-20c0-17 13-30 30-30l10 0 0-40-10 0c-6 0-10 4-10 10 0 6-4 10-10 10-6 0-10-4-10-10 0-17 13-30 30-30l10 0 0-10c0-6 4-10 10-10 6 0 10 4 10 10l0 10 10 0c17 0 30 13 30 30l0 20c0 17-13 30-30 30z m-30 0l-10 0c-6 0-10 4-10 10l0 20c0 6 4 10 10 10l10 0z m40-50c0-6-4-10-10-10l-10 0 0 40 10 0c6 0 10-4 10-10z m-30 190c-24 0-46-5-67-16-5-3-7-9-5-13 3-5 9-7 14-5 18 9 37 14 58 14 72 0 130-58 130-130 0-72-58-130-130-130-72 0-130 58-130 130 0 21 5 41 15 60 2 5 0 11-5 13-5 3-11 1-13-4-11-21-17-45-17-69 0-83 67-150 150-150 83 0 150 67 150 150 0 83-67 150-150 150z m310-404l-110 109c0 0 0 0 0 0l-41 41c20 31 31 67 31 104 0 105-85 190-190 190-105 0-190-85-190-190 0-105 85-190 190-190 36 0 72 10 102 30l40-40c0 0 1-1 1-1 1-1 2-1 2-2l109-107c7-8 17-12 28-12 11 0 21 4 28 12 8 7 12 17 12 28 0 11-4 21-12 28z m-212 115c-29-20-63-31-98-31-94 0-170 76-170 170 0 94 76 170 170 170 94 0 170-76 170-170 0-36-11-71-33-100-11-15-24-28-39-39z m21-9c10 8 20 17 28 28l32-32-28-28z m177-148c-4-4-9-6-14-6-5 0-10 2-14 6l-103 102 28 28 103-102c4-4 6-9 6-14 0-5-2-10-6-14z"/>
<glyph glyph-name="010-money-1" unicode="&#116;" d="M503 68l-8 0 0 137-1 0c6 10 9 22 9 34l0 8c0 2 0 4-2 6l0 0-6 7 0 115c0 19-15 34-34 34l-80 0c-14 70-81 114-150 100-51-10-90-49-100-100l-80 0c-19 0-34-15-34-34l0-115-6-7 0 0c-2-2-2-4-2-6l0-8c0-12 3-24 9-34l-1 0 0-137-8 0c-5 0-9-4-9-8l0-26c0-19 15-34 34-34l444 0c19 0 34 15 34 34l0 26c0 4-4 8-9 8z m-17 171c0-28-23-51-51-51-28 0-51 23-51 51z m-418-137l376 0c4 0 8 4 8 9l0 62c10 2 18 7 26 13l0-118-145 0c-2 0-5-1-6-2l-15-15-112 0-15 15c-1 1-4 2-6 2l-145 0 0 118c8-6 16-11 26-13l0-62c0-5 4-9 8-9z m179 137c0-28-22-51-51-51-28 0-51 23-51 51z m-97 17l18 43 79 0 0-43z m-19 0l-95 0 36 43 77 0z m6-50c18-33 59-45 92-27 11 6 21 16 27 27 18-33 60-45 93-27 11 6 20 16 26 27 12-22 35-35 60-35l0-52-358 0 0 52c25 0 48 13 60 35z m230 33c0-28-23-51-51-51-29 0-51 23-51 51z m-102 17l0 43 79 0 19-43z m98 43l77 0 36-43-95 0z m-107 196c61 0 111-50 111-111 0-12-2-23-6-34l-18 0c19 48-4 102-53 121-48 20-102-4-121-52-9-22-9-47 0-69l-18 0c-4 11-6 22-6 34 0 61 50 111 111 111z m17-111c-1 1-3 2-5 3l0 0-16 9c-4 1-6 6-4 9 1 3 4 4 7 4l2 0c4 0 8-3 8-7l0-1 17 0 0 1c0 11-7 20-17 23l0 10-18 0 0-10c-12-4-19-17-15-30 1-6 6-12 12-15l16-8c4-2 6-6 4-10-1-2-4-4-7-4l-2 0c-4 0-8 4-8 8l0 1-17 0 0-1c0-6 3-12 6-16l-49 0c-19 38-3 84 35 103 38 19 84 3 103-35 10-21 10-47 0-68l-49 0c8 10 7 25-3 34z m-239-9c0 10 8 17 17 17l77 0c0-2 0-5 0-8 0-12 2-23 5-34l-13 0 0-17 272 0 0 17-13 0c3 11 5 22 5 34 0 3 0 6 0 8l77 0c9 0 17-7 17-17l0-95-26 30 0 48c0 5-4 9-8 9l-34 0 0-17 25 0 0-34-358 0 0 34 25 0 0 17-34 0c-4 0-8-4-8-9l0-48-26-30z m94-136c0-28-23-51-51-51-28 0-51 23-51 51z m367-205c0-9-8-17-17-17l-444 0c-9 0-17 8-17 17l0 17 159 0 14-14c2-2 4-3 6-3l120 0c2 0 4 1 6 3l14 14 159 0z m-248 51l18 0 0-17-18 0z m-51 307l17 0 0-17-17 0z m103 0l17 0 0-17-17 0z"/>
<glyph glyph-name="011-money" unicode="&#117;" d="M385 336c-2 6-6 12-13 15l-16 8c-4 2-6 6-4 10 1 3 4 4 7 4l2 0c4 0 8-3 8-7l0-2 17 0 0 2c0 11-7 20-17 23l0 10-18 0 0-10c-13-4-20-18-16-31 2-6 7-11 13-14l17-9c3-2 5-6 3-10-1-2-4-4-7-4l-2 0c-4 0-8 3-8 7l0 2-17 0 0-2c0-10 7-20 17-23l0-10 18 0 0 10c13 4 20 18 16 31z m-191 78c-2 6-6 12-12 15l-17 8c-4 2-5 6-4 10 2 3 4 4 7 4l2 0c5 0 8-3 8-7l0-1 17 0 0 1c0 11-7 20-17 23l0 10-17 0 0-10c-13-4-21-18-17-31 2-6 7-11 13-14l17-9c3-2 5-6 3-10-1-2-4-4-7-4l-2 0c-4 0-7 4-7 8l0 1-18 0 0-1c0-11 7-21 18-24l0-10 17 0 0 10c13 4 20 18 16 31z m210-240l-27 0 0 26c0 4-3 8-8 8l-269 0c-5 0-9-4-9-8l0-26-26 0c-5 0-9-4-9-9l0-87c0-5 4-9 9-9l26 0 0-26c0-4 4-8 9-8l269 0c5 0 8 4 8 8l0 26 27 0c4 0 8 4 8 9l0 87c0 5-4 9-8 9z m-9-87l-26 0c-5 0-9-4-9-9l0-26-252 0 0 26c0 5-3 9-8 9l-26 0 0 69 26 0c5 0 8 4 8 9l0 26 252 0 0-26c0-5 4-9 9-9l26 0z m87 199l-60 0c34 35 33 89-1 123-34 34-89 33-123-1-33-34-33-88 0-122l-242 0c-4 0-8-4-8-8l0-35-18 0c-4 0-8-4-8-9l0-225c0-5 4-9 8-9l408 0c5 0 9 4 9 9l0 8 35 0c4 0 8 4 8 9l0 252c0 4-4 8-8 8z m-191 61c0 38 31 69 69 70 38 0 70-32 70-70 0-38-32-69-70-69-38 0-69 31-69 69z m139-330l-391 0 0 209 391 0z m43 18l-26 0 0 199c0 5-4 9-9 9l-373 0 0 26 258 0c23-12 51-12 75 0l75 0z m-239 130c-24 0-43-20-43-44 0-23 19-43 43-43 24 0 44 20 44 43 0 24-20 44-44 44z m0-70c-14 0-26 12-26 26 0 15 12 27 26 27 15 0 26-12 26-27 0-14-11-26-26-26z m-178 113l18 0 0-17-18 0z m339 0l17 0 0-17-17 0z m0-156l17 0 0-17-17 0z m-339 0l18 0 0-17-18 0z m339 304l17 0 0-18-17 0z m-87 0l17 0 0-18-17 0z m-104 78l17 0 0-17-17 0z m-87 0l18 0 0-17-18 0z m52 78c-48 0-87-39-87-87 0-48 39-87 87-87 48 0 87 39 87 87 0 48-39 87-87 87z m0-156c-38 0-69 31-69 69 0 39 31 70 69 70 39 0 70-31 70-70 0-38-31-69-70-69z"/>
<glyph glyph-name="011-stopwatch" unicode="&#118;" d="M156 300c-6 0-10-4-10-10 0-6 4-10 10-10 6 0 10 4 10 10 0 6-4 10-10 10z m120-100l-10 0 0 40 10 0c6 0 10-4 10-10 0-6 4-10 10-10 6 0 10 4 10 10 0 17-13 30-30 30l-10 0 0 10c0 6-4 10-10 10-6 0-10-4-10-10l0-10-10 0c-17 0-30-13-30-30l0-20c0-17 13-30 30-30l10 0 0-40-10 0c-6 0-10 4-10 10 0 6-4 10-10 10-6 0-10-4-10-10 0-17 13-30 30-30l10 0 0-10c0-6 4-10 10-10 6 0 10 4 10 10l0 10 10 0c17 0 30 13 30 30l0 20c0 17-13 30-30 30z m-30 0l-10 0c-6 0-10 4-10 10l0 20c0 6 4 10 10 10l10 0z m40-50c0-6-4-10-10-10l-10 0 0 40 10 0c6 0 10-4 10-10z m110 169l23 27c11 12 11 31-1 42-11 12-30 12-42 0 0 0 0 0-1 0l-26-32c-17 9-35 16-53 20l0 56 30 0c11 0 21 4 28 12 8 7 12 17 12 28 0 22-18 40-40 40l-140 0c-11 0-21-4-28-12-8-7-12-17-12-28 0-22 18-40 40-40l30 0 0-56c-18-4-36-11-53-20l-26 32c-1 0-1 0-1 0-12 12-31 12-42 0-12-11-12-30-1-42l23-27c-32-36-50-81-50-129 0-105 85-190 190-190 105 0 190 85 190 190 0 48-18 93-50 129z m-6 56c4 3 10 3 14-1 4-4 4-10 0-14 0 0 0 0 0-1l-23-26c-5 4-10 8-15 12z m-204 77c-11 0-20 9-20 20 0 5 2 10 6 14 4 4 9 6 14 6l140 0c11 0 20-9 20-20 0-5-2-10-6-14-4-4-9-6-14-6z m90-20l0-52-40 0 0 52z m-168-73c0 1 0 1 0 1-4 4-4 10 0 14 4 4 10 4 14 1l24-30c-5-4-10-8-15-12z m148-339c-94 0-170 76-170 170 0 46 18 89 51 121 9 9 19 17 30 24 26 16 57 25 89 25 32 0 63-9 90-25 10-7 20-15 29-24 33-32 51-75 51-121 0-94-76-170-170-170z m0 320c-24 0-46-5-67-16-5-3-7-9-5-13 3-5 9-7 14-5 18 9 37 14 58 14 72 0 130-58 130-130 0-72-58-130-130-130-72 0-130 58-130 130 0 21 5 41 15 60 2 5 0 11-5 13-5 3-11 1-13-4-11-21-17-45-17-69 0-83 67-150 150-150 83 0 150 67 150 150 0 83-67 150-150 150z"/>
<glyph glyph-name="012-browser" unicode="&#119;" d="M336 457c-6 0-10-5-10-10 0-6 4-10 10-10 6 0 10 4 10 10 0 5-4 10-10 10z m-200 0c-6 0-10-5-10-10 0-6 4-10 10-10 6 0 10 4 10 10 0 5-4 10-10 10z m-43 0c-6 0-10-5-10-10 0-6 4-10 10-10 6 0 10 4 10 10 0 5-4 10-10 10z m-43 0c-6 0-10-5-10-10 0-6 4-10 10-10 6 0 10 4 10 10 0 5-4 10-10 10z m206-260c-6 0-10 4-10 10 0 5 4 10 10 10 4 0 7-2 11-6 4-3 10-3 14 1 4 4 4 10 0 14-5 5-10 8-15 9l0 12c0 5-4 10-10 10-6 0-10-5-10-10l0-12c-12-4-20-15-20-28 0-17 13-30 30-30 6 0 10-5 10-10 0-6-4-10-10-10-4 0-9 2-13 7-4 4-10 5-14 1-4-3-5-9-1-14 5-6 11-10 18-13l0-11c0-6 4-10 10-10 6 0 10 4 10 10l0 11c12 5 20 16 20 29 0 16-13 30-30 30z m94 92l-90 43c-3 2-6 2-9 0l-89-43c-4-2-6-6-6-9l0-144c0-14 7-27 19-34 0-1 0-1 1-1l76-37c1 0 3-1 4-1 2 0 3 1 4 1l76 37c1 0 1 0 1 1 12 7 19 20 19 34l0 144c0 3-2 7-6 9z m-14-153c0-7-3-13-9-17l-71-35-71 35c-6 4-9 10-9 17l0 137 80 39 80-39z m146 361l-452 0c-17 0-30-14-30-30l0-400c0-17 13-30 30-30l183 0 38-21c2 0 3-1 5-1 2 0 3 1 5 1l38 21 183 0c17 0 30 13 30 30l0 400c0 16-13 30-30 30z m-190-442c0 0 0 0 0 0l-36-18-36 18c0 0 0 0 0 0l0 1-57 29c-17 12-27 31-27 51l0 162 120 59 120-59 0-162c0-20-10-39-27-51z m200 12c0-6-4-10-10-10l-145 0 22 11c0 0 0 0 1 0 22 16 36 41 36 68l0 169c0 3-2 7-6 9l-130 63c-3 1-6 1-9 0l-129-63c-4-2-6-6-6-9l0-169c0-27 14-52 36-68 1 0 1 0 1 0l22-11-145 0c-6 0-10 4-10 10l0 330 472 0z m0 350l-472 0 0 50c0 5 4 10 10 10l452 0c6 0 10-5 10-10z m-30 40l-86 0c-6 0-10-5-10-10 0-6 4-10 10-10l86 0c6 0 10 4 10 10 0 5-4 10-10 10z"/>
<glyph glyph-name="012-transaction" unicode="&#120;" d="M85 85l17 0 0-17-17 0z m17 180l17 0 0-18-17 0z m86 213l17 0 0-17-17 0z m34 0l17 0 0-17-17 0z m239-261l0 39c0 16-14 30-30 30-6 0-11-2-16-5-6 15-24 22-39 15 0 0 0 0-1 0l0 173c0 24-19 43-42 43l-239 0c-24 0-43-19-43-43l0-426c0-24 19-43 43-43l213 0 0 34 120 0 0-34 17 0 0 34 8 0c5 0 9 4 9 9l0 68c0 5-4 8-9 8l-8 0 0 24c11 23 17 49 17 74z m-393 252c0 14 12 26 26 26l239 0c14 0 25-12 25-26l0-25-290 0z m222-452l-196 0c-14 0-26 12-26 26l0 384 290 0 0-119c-8 4-17 4-25 0l0 46c0 17-14 30-30 30-17 0-30-13-30-30l0-99c-28-5-47-32-42-60 3-15 12-28 25-35l25-15c6-3 9-9 9-16l0-10-8 0c-5 0-9-3-9-8l0-26-154 0 0-17 154 0 0-25c0-5 4-9 9-9l8 0z m154 34l-154 0 0 51 154 0z m-16 98c-1-1-1-3-1-4l0-26-120 0 0 10c0 13-7 25-18 31l-24 14c-11 7-18 18-18 31 1 15 11 29 26 33l0-33 17 0 0 149c0 7 6 13 13 13 7 0 13-6 13-13l0-115 17 0 0 43c0 7 6 12 13 12 7 0 12-5 12-12l0-43 17 0 0 30c0 7 6 13 13 13 7 0 13-6 13-13l0-30 17 0 0 17c0 7 6 13 13 13 7 0 13-6 13-13l0-39c0-23-6-47-16-68z m-241 190c-2 6-7 11-13 14l-16 9c-4 1-5 6-4 9 2 3 4 4 7 4l2 0c4 0 8-3 8-7l0-1 17 0 0 1c0 11-7 20-17 23l0 10-17 0 0-10c-13-4-20-17-16-30 2-6 6-12 12-15l17-8c3-2 5-6 3-10-1-2-4-4-7-4l-2 0c-4 0-7 4-7 8l0 1-17 0 0-1c0-11 6-20 17-24l0-9 17 0 0 9c12 4 20 18 16 31z m-93-109l111 0 0-17-111 0z m0-34l111 0 0-17-111 0z m0-34l111 0 0-17-111 0z m43 103l68 0 0-18-68 0z m68-214l17 0 0-17-17 0z m205 34l17 0 0-17-17 0z"/>
<glyph glyph-name="013-budget" unicode="&#121;" d="M276 269c-6 0-10-4-10-10 0-6 4-10 10-10 6 0 10 4 10 10 0 6-4 10-10 10z m-180 143c-6 0-10 4-10 10 0 6 4 10 10 10 4 0 7-2 11-5 4-4 10-4 14 0 4 4 4 10 0 14-5 5-10 8-15 9l0 12c0 6-4 10-10 10-6 0-10-4-10-10l0-12c-12-4-20-15-20-28 0-17 13-30 30-30 6 0 10-4 10-10 0-6-4-10-10-10-4 0-9 3-13 8-4 4-10 4-14 1-4-4-5-10-1-14 5-7 11-11 18-13l0-12c0-6 4-10 10-10 6 0 10 4 10 10l0 12c12 4 20 15 20 28 0 17-13 30-30 30z m180-229l-40 0c-6 0-10-4-10-10l0-40c0-6 4-10 10-10l40 0c6 0 10 4 10 10l0 40c0 6-4 10-10 10z m-10-40l-20 0 0 20 20 0z m90 40l-40 0c-6 0-10-4-10-10l0-40c0-6 4-10 10-10l40 0c6 0 10 4 10 10l0 40c0 6-4 10-10 10z m-10-40l-20 0 0 20 20 0z m-70-40l-40 0c-6 0-10-4-10-10l0-40c0-6 4-10 10-10l40 0c6 0 10 4 10 10l0 40c0 6-4 10-10 10z m-10-40l-20 0 0 20 20 0z m90 40l-40 0c-6 0-10-4-10-10l0-40c0-6 4-10 10-10l40 0c6 0 10 4 10 10l0 40c0 6-4 10-10 10z m-10-40l-20 0 0 20 20 0z m90 120l-40 0c-6 0-10-4-10-10l0-120c0-6 4-10 10-10l40 0c6 0 10 4 10 10l0 120c0 6-4 10-10 10z m-10-120l-20 0 0 100 20 0z m10 246l-200 0c-6 0-10-4-10-10l0-86c0-6 4-10 10-10l200 0c6 0 10 4 10 10l0 86c0 6-4 10-10 10z m-10-86l-180 0 0 66 180 0z m30 129l-90 0 0 60c0 8-3 16-8 21l-68 70c-3 3-6 5-10 7 0 0 0 0 0 0 0 0 0 0 0 0-4 1-7 2-11 2l-213 0c-17 0-30-13-30-30l0-389c0-17 13-30 30-30l130 0 0-33c0-17 13-30 30-30l240 0c17 0 30 13 30 30l0 292c0 17-13 30-30 30z m-170 127l57-60c2-2 3-4 3-7l0 0-50 0c-6 0-10 4-10 10z m-100-157l0-239-130 0c-6 0-10 4-10 10l0 389c0 6 4 10 10 10l210 0 0-70c0-17 13-30 30-30l50 0 0-40-130 0c-17 0-30-13-30-30z m280-292c0-6-4-10-10-10l-240 0c-6 0-10 4-10 10l0 292c0 6 4 10 10 10l240 0c6 0 10-4 10-10z m-70 239l-80 0c-6 0-10-4-10-10 0-6 4-10 10-10l80 0c6 0 10 4 10 10 0 6-4 10-10 10z m-160 123l-80 0c-6 0-10-4-10-10 0-6 4-10 10-10l80 0c6 0 10 4 10 10 0 6-4 10-10 10z m0 40l-80 0c-6 0-10-4-10-10 0-6 4-10 10-10l80 0c6 0 10 4 10 10 0 6-4 10-10 10z m-80-123l-80 0c-6 0-10-4-10-10 0-6 4-10 10-10l80 0c6 0 10 4 10 10 0 6-4 10-10 10z m-60-40l-20 0c-6 0-10-4-10-10 0-6 4-10 10-10l20 0c6 0 10 4 10 10 0 6-4 10-10 10z m60 0l-20 0c-6 0-10-4-10-10 0-6 4-10 10-10l20 0c6 0 10 4 10 10 0 6-4 10-10 10z m-60-46l-20 0c-6 0-10-4-10-10 0-6 4-10 10-10l20 0c6 0 10 4 10 10 0 6-4 10-10 10z m60 0l-20 0c-6 0-10-4-10-10 0-6 4-10 10-10l20 0c6 0 10 4 10 10 0 6-4 10-10 10z m-60-40l-20 0c-6 0-10-4-10-10 0-6 4-10 10-10l20 0c6 0 10 4 10 10 0 6-4 10-10 10z m60 0l-20 0c-6 0-10-4-10-10 0-6 4-10 10-10l20 0c6 0 10 4 10 10 0 6-4 10-10 10z m-60-40l-20 0c-6 0-10-4-10-10 0-6 4-10 10-10l20 0c6 0 10 4 10 10 0 6-4 10-10 10z m60 0l-20 0c-6 0-10-4-10-10 0-6 4-10 10-10l20 0c6 0 10 4 10 10 0 6-4 10-10 10z"/>
<glyph glyph-name="013-mobile" unicode="&#122;" d="M205 478l17 0 0-17-17 0z m34 0l17 0 0-17-17 0z m180-146c-8 10-17 19-27 26l1 0 0 111c0 24-20 43-43 43l-239 0c-24 0-43-19-43-43l0-426c0-24 19-43 43-43l239 0c23 0 43 19 43 43l0 111-1 0c57 42 69 121 27 178z m-334 137c0 14 12 26 26 26l239 0c14 0 25-12 25-26l0-25-290 0z m290-426c0-14-11-26-25-26l-239 0c-14 0-26 12-26 26l0 25 290 0z m0 42l-290 0 0 342 290 0 0-58c-18 10-38 15-59 15-28 0-55-9-77-26l0 35-17 0 0-274 17 0 0 35c39-30 93-34 136-11z m-59 60c-29 0-56 11-77 31l0 26c30-42 88-53 131-23 42 30 52 88 23 131-30 42-88 53-131 23-9-6-17-14-23-23l0 26c44 42 114 41 157-3 20-21 31-48 31-77 0-61-50-111-111-111z m-77 111c0 42 34 77 77 77 42 0 77-35 77-77 0-42-35-77-77-77-43 0-77 35-77 77z m101-11c-2 6-6 12-12 14l-17 9c-3 2-5 6-3 10 1 2 4 4 6 4l3 0c4 0 7-4 7-8l0-1 17 0 0 1c0 11-7 20-17 23l0 10-17 0 0-10c-13-4-20-17-16-30 2-6 7-12 13-14l16-9c4-2 5-6 4-10-2-2-4-4-7-4l-3 0c-4 0-7 4-7 8l0 1-17 0 0-1c0-11 7-20 17-23l0-10 17 0 0 10c13 4 20 17 16 30z m-118-194l17 0 0-17-17 0z m34 214l17 0 0-18-17 0z m102 0l17 0 0-18-17 0z"/>
<glyph glyph-name="014-loan-1" unicode="&#65;" d="M280 305c-1 6-6 11-12 14l-16 9c-4 1-6 6-4 9 1 3 4 4 7 4l2 0c4 0 8-3 8-7l0-1 17 0 0 1c0 11-7 20-17 23l0 10-18 0 0-10c-12-4-19-17-15-30 1-7 6-12 12-15l16-8c4-2 6-6 4-10-1-2-4-4-7-4l-2 0c-4 0-8 3-8 7l0 2-17 0 0-2c0-10 7-20 17-23l0-9 18 0 0 9c12 4 19 18 15 31z m70 70l0 69-17 0 0-72c0-1 0-3 1-4 29-44 17-102-26-131-43-28-102-16-130 27-26 39-19 90 15 122 2 1 3 3 3 6l0 86-17 0 0-82c-44-43-45-113-3-157 42-44 113-46 157-3 38 36 45 94 17 139z m-51 111l0-68c-14 6-28 9-43 9-3 0-6 0-9-1l0 43-17 0 0-52c0-3 2-5 3-7 2-2 5-2 7-2 22 4 44 0 63-11 4-2 9-1 12 3 0 1 1 3 1 4l0 82z m-34 17l17 0 0-34-17 0z m80-302c-26-20-57-30-89-30-14 0-27 2-40 5l-5-16c15-4 30-6 45-6 36-1 71 11 99 33z m-188 243c-8-6-15-13-22-20l13-12c6 7 12 13 19 19z m22 68l17 0 0-17-17 0z m154-34l17 0 0-17-17 0z m-34-154l17 0 0-17-17 0z m-103 0l17 0 0-17-17 0z m-13-134l-8-15c6-3 12-6 18-9l7 16c-6 2-11 5-17 8z m319 102l-50 132c-3 7-9 14-17 17-7 3-16 4-24 1-8-4-14-10-18-17-3-8-3-17 1-24l23-56c-1 0-2 1-3 1-17 0-30-14-30-30l0-66c0-7-2-14-5-20-13-27-21-58-21-89l0-22c-4 0-8-3-8-8l0-68c0-5 4-9 8-9l0-34 17 0 0 34 86 0 0-34 17 0 0 34c5 0 8 4 8 9l0 68c0 5-3 8-8 8l-3 0 26 64c14 35 15 74 1 109z m-33-241l-102 0 0 51 102 0z m16 139l-29-71-81 0 0 22c0 28 7 56 20 82 4 8 6 17 6 27l0 66c0 7 6 12 13 12 6 0 11-4 12-9 0-2 1-3 1-4l0-102 17 0 0 102c0 0 0 1 0 1 0 0 0 0 0 0 0 7-2 14-5 20l-30 71c-1 4-1 8 0 11 2 3 5 6 8 8 4 1 8 1 11-1 4-1 7-4 8-8l50-131c12-31 12-66-1-96z m-50-105l17 0 0-17-17 0z m-281 34l0 22c0 31-8 62-21 89-3 6-5 13-5 20l0 66c0 16-13 30-30 30-1 0-2-1-3-1l24 56c3 7 3 16 0 24-4 7-10 13-18 17-8 3-17 2-24-1-8-3-14-10-17-17l-50-132c-14-35-13-74 1-109l26-64-3 0c-5 0-8-3-8-8l0-68c0-5 3-9 8-9l0-34 17 0 0 34 86 0 0-34 17 0 0 34c4 0 8 4 8 9l0 68c0 5-4 8-8 8z m-127 71c-13 30-13 65-1 96l50 131c1 4 4 7 8 8 3 2 7 2 11 1 3-2 6-5 8-8 1-3 1-7 0-11l-30-71c-3-6-5-13-5-20 0 0 0 0 0 0 0 0 0-1 0-1l0-102 17 0 0 102c0 1 1 2 1 4 1 6 8 11 15 9 6-1 10-6 10-12l0-66c0-10 2-19 6-27 13-26 20-54 20-82l0-22-81 0z m118-139l-102 0 0 51 102 0z m-85 34l17 0 0-17-17 0z"/>
<glyph glyph-name="014-smartphone" unicode="&#66;" d="M276 143c-6 0-10-4-10-10 0-6 4-10 10-10 6 0 10 4 10 10 0 6-4 10-10 10z m80 143l-10 0 0 40 10 0c6 0 10-4 10-10 0-6 4-10 10-10 6 0 10 4 10 10 0 17-13 30-30 30l-10 0 0 10c0 6-4 10-10 10-6 0-10-4-10-10l0-10-10 0c-17 0-30-13-30-30l0-20c0-17 13-30 30-30l10 0 0-40-10 0c-6 0-10 4-10 10 0 6-4 10-10 10-6 0-10-4-10-10 0-17 13-30 30-30l10 0 0-10c0-6 4-10 10-10 6 0 10 4 10 10l0 10 10 0c17 0 30 13 30 30l0 20c0 17-13 30-30 30z m-30 0l-10 0c-6 0-10 4-10 10l0 20c0 6 4 10 10 10l10 0z m40-50c0-6-4-10-10-10l-10 0 0 40 10 0c6 0 10-4 10-10z m96 276l-452 0c-6 0-10-4-10-10l0-492c0-6 4-10 10-10l452 0c28 0 50 22 50 50l0 412c0 28-22 50-50 50z m-442-492l0 472 153 0c-5-7-8-14-9-23l-111 0c-6 0-10-4-10-10l0-406c0-6 4-10 10-10l111 0c1-9 4-16 9-23z m128 261c-4 4-10 4-14 0-5-5-8-10-9-15l-12 0c-6 0-10-4-10-10 0-6 4-10 10-10l12 0c4-12 15-20 28-20 4 0 7 1 10 2l0-42c-26 2-51 9-69 22-20 13-31 30-31 48 0 18 11 35 31 48 18 13 43 20 69 22l0-70c0-6-4-10-10-10-6 0-10 4-10 10 0 4 2 7 5 11 4 4 4 10 0 14z m-85-159l0 86c5-6 12-12 20-17 21-14 50-23 80-25l0-103-41 0c-2 15-9 29-20 40-10 10-24 17-39 19z m39-59l-39 0 0 39c10-2 18-7 25-14 7-7 12-15 14-25z m-19 258c-8-5-15-11-20-17l0 86c31 4 55 28 59 59l41 0 0-103c-30-2-59-11-80-25z m-20 89l0 39 39 0c-4-20-19-35-39-39z m429-360c0-17-13-30-30-30l-249 0c-17 0-30 13-30 30l0 412c0 17 13 30 30 30l249 0c17 0 30-13 30-30z m-33 399l-246 0c-6 0-10-4-10-10l0-346c0-6 4-10 10-10l246 0c6 0 10 4 10 10l0 346c0 6-4 10-10 10z m-10-346l-226 0 0 326 226 0z m-93-40l-40 0c-6 0-10-4-10-10 0-6 4-10 10-10l40 0c6 0 10 4 10 10 0 6-4 10-10 10z m43 80l-83 0c-6 0-10-4-10-10 0-6 4-10 10-10l83 0c6 0 10 4 10 10 0 6-4 10-10 10z"/>
<glyph glyph-name="015-bank-1" unicode="&#67;" d="M196 452c-6 0-10-4-10-10 0-6 4-10 10-10 6 0 10 4 10 10 0 6-4 10-10 10z m60 20c-8 0-16-1-23-2-6-1-9-6-8-12 1-5 6-9 11-8 7 1 13 2 20 2 61 0 110-49 110-110 0-61-49-110-110-110-61 0-110 49-110 110 0 23 7 46 21 65 3 4 2 10-2 14-4 3-11 2-14-2-16-23-25-49-25-77 0-72 58-130 130-130 72 0 130 58 130 130 0 72-58 130-130 130z m20-120l-10 0 0 40 10 0c6 0 10-4 10-10 0-6 4-10 10-10 6 0 10 4 10 10 0 17-13 30-30 30l-10 0 0 10c0 6-4 10-10 10-6 0-10-4-10-10l0-10-10 0c-17 0-30-13-30-30l0-20c0-17 13-30 30-30l10 0 0-40-10 0c-6 0-10 4-10 10 0 6-4 10-10 10-6 0-10-4-10-10 0-17 13-30 30-30l10 0 0-10c0-6 4-10 10-10 6 0 10 4 10 10l0 10 10 0c17 0 30 13 30 30l0 20c0 17-13 30-30 30z m-30 0l-10 0c-6 0-10 4-10 10l0 20c0 6 4 10 10 10l10 0z m40-50c0-6-4-10-10-10l-10 0 0 40 10 0c6 0 10-4 10-10z m91-185c-14 9-32 17-52 22l65 99c24 30 36 66 36 104 0 94-76 170-170 170-94 0-170-76-170-170 0-38 12-74 36-104l65-99c-20-5-38-13-52-22-19-13-29-28-29-44 0-20 17-39 47-53 28-13 65-20 103-20 38 0 75 7 103 20 30 14 47 33 47 53 0 16-10 31-29 44z m-239 132c0 0 0 1 0 1-21 26-32 58-32 92 0 83 67 150 150 150 83 0 150-67 150-150 0-34-11-66-32-92 0 0 0-1 0-1l-118-178z m213-211c-26-12-59-18-95-18-36 0-69 6-95 18-22 10-35 23-35 35 0 17 27 38 73 48l49-74c2-2 5-4 8-4 3 0 6 2 8 4l49 74c46-10 73-31 73-48 0-12-13-25-35-35z"/>
<glyph glyph-name="015-strategy" unicode="&#68;" d="M418 51l0 43c0 2-1 4-2 6l-67 67-39 100c13 6 18 22 12 34-2 4-5 7-8 10 23 17 36 44 36 73 0 42-28 79-68 90l0 12c0 15-12 26-26 26-14 0-26-11-26-26l0-12c-40-11-68-48-68-90 0-29 13-56 36-73-11-9-14-25-5-36 2-3 5-6 9-8l-39-100-67-67c-1-2-2-4-2-6l0-43c-14 0-26-11-26-25 0-15 12-26 26-26l324 0c14 0 26 11 26 26 0 14-12 25-26 25z m-171 435c0 5 4 9 9 9 5 0 9-4 9-9l0-8-18 0z m-68-102c0 42 34 77 77 77 42 0 77-34 77-77 0-29-16-55-42-68l-70 0c-26 13-42 39-42 68z m128-94c0-5-4-8-8-8l-86 0c-4 0-8 3-8 8 0 5 4 9 8 9l86 0c4 0 8-4 8-9z m-196-200l63 64 125 0 0 17-116 0 36 94 74 0 36-94-13 0 0-17 22 0 51-52-218 0 0-17 230 0 0-34-290 0z m307-73l-324 0c-5 0-9 4-9 9 0 4 4 8 9 8l324 0c5 0 9-4 9-8 0-5-4-9-9-9z m-137 356c-2 6-7 12-13 14l-16 9c-4 2-6 6-4 10 1 2 4 4 7 4l2 0c4 0 8-4 8-8l0-1 17 0 0 1c0 11-7 20-17 23l0 10-18 0 0-10c-12-4-19-17-15-30 1-6 6-12 12-14l16-9c4-2 6-6 4-10-1-2-4-4-7-4l-2 0c-4 0-8 4-8 8l0 1-17 0 0-1c0-11 7-20 17-23l0-10 18 0 0 10c12 4 19 17 16 30z m-144-271l17 0 0-17-17 0z m59 291l17 0 0-18-17 0z m103 0l17 0 0-18-17 0z"/>
<glyph glyph-name="016-investment" unicode="&#69;" d="M334 385c21-44 74-64 119-43 45 21 63 74 42 119-21 44-74 64-119 42-38-17-58-59-48-101l-56-39-55 39c11 48-18 95-65 107-48 11-95-19-107-66-11-47 19-95 66-106 41-10 83 11 101 48l52-37 0-49c-16 22-42 35-70 35l-18 0c-5 0-8-3-8-8 0-49 39-88 88-88l8 0 0-18c-47-3-89-26-105-62-1 0-3 0-4 0l-24 0c0 6-3 9-8 9l-71 0c-5 0-9-3-9-9l-35 0 0-17 35 0 0-88-35 0 0-18 35 0c0-5 4-9 9-9l71 0c5 0 8 4 8 9l0 4 67-28c36-15 75-15 111-1l136 52c8 2 15 8 17 16 4 8 4 17 1 26-3 8-9 15-17 17-8 4-17 4-25 0l-27-11c2 5 2 9 2 13 0 51-51 93-115 97l0 18 9 0c48 0 88 39 88 88 0 5-4 8-9 8l-17 0c-29 0-54-13-71-35l0 49z m79 108c39 0 71-32 71-71 0-38-32-70-71-70-39 0-70 32-70 70 0 39 31 71 70 71z m-282-141c-38 0-70 32-70 70 0 39 32 71 70 71 39 0 71-32 71-71 0-38-32-70-71-70z m124-97c-35 0-65 27-70 62l8 0c35 0 65-27 70-62z m-141-211l-53 0 0 106 53 0z m314 62c4 1 7 1 11 0 3-2 6-5 8-8 1-4 1-8 0-12-2-3-5-6-8-8l-136-52c-32-12-68-11-99 1l-73 30 0 84 22 0c30 0 59-7 85-21 9-4 18-6 28-6l68 0c7 0 13-6 13-13 0-6-4-11-10-13-1 0-3 0-4 0l-105 0 0-18 105 0c0 0 0 0 1 0 0 0 0 0 1 0 7 0 14 2 20 5z m-50 17c0-7-2-14-4-21l-9-4c0 0 0 1 0 3 0 17-14 31-31 31l-69 0c-7 0-14 2-20 4-22 11-45 18-69 21 18 27 55 45 95 45 59 0 107-35 107-79z m-26 194l7 0c-4-35-34-62-69-62l-8 0c4 35 34 62 70 62z m87 94c-2 6-7 12-13 15l-16 9c-4 2-6 6-4 9 0 3 3 5 6 5l3 0c3 0 7-4 7-8l0-1 18 0 0 1c0 10-7 20-18 24l0 10-18 0 0-9c-13-5-20-19-16-32 1-6 7-12 12-15l17-9c3-2 5-6 3-10-1-2-3-4-7-4l-2 0c-5 0-8 4-8 8l0 1-18 0 0-1c2-11 9-21 19-25l0-9 18 0 0 9c13 5 20 19 17 32z m9 20l18 0 0-17-18 0z m-88 0l18 0 0-17-18 0z m-202 9l0 1c0 11-7 21-18 25l0 9-17 0 0-9c-14-5-21-19-17-32 2-6 7-12 12-15l17-9c4-2 5-6 4-10-1-2-4-4-8-4l-2 0c-5 0-8 4-8 8l0 1-18 0 0-1c0-11 7-20 18-24l0-10 18 0 0 9c13 5 20 19 16 32-2 6-7 12-12 15l-17 9c-3 2-5 6-3 9 1 3 4 5 8 5l2 0c4 0 7-4 7-8l0-1z m9-9l17 0 0-17-17 0z m-88 0l17 0 0-17-17 0z m0-352l17 0 0-17-17 0z"/>
<glyph glyph-name="016-presentation" unicode="&#70;" d="M116 366c-6 0-10-4-10-10 0-6 4-10 10-10 6 0 10 4 10 10 0 6-4 10-10 10z m260-60c-6 0-10 4-10 10 0 6 4 10 10 10 4 0 7-2 11-5 4-4 10-4 14 0 4 4 4 10 0 14-5 5-10 8-15 9l0 12c0 6-4 10-10 10-6 0-10-4-10-10l0-12c-12-4-20-15-20-28 0-17 13-30 30-30 6 0 10-4 10-10 0-6-4-10-10-10-4 0-9 3-13 8-4 4-10 4-14 1-4-4-5-10-1-14 5-7 11-11 18-13l0-12c0-6 4-10 10-10 6 0 10 4 10 10l0 12c12 4 20 15 20 28 0 17-13 30-30 30z m106 166l-177 0c-5 23-25 40-49 40-24 0-44-17-49-40l-177 0c-17 0-30-13-30-30l0-286c0-17 13-30 30-30l85 0-45-81c-8-14-3-32 11-41 4-3 10-4 15-4 11 0 20 6 26 15 0 0 0 0 0 0l62 111 42 0 0-96c0-17 13-30 30-30 17 0 30 13 30 30l0 96 41 0 63-111c0 0 0 0 0 0 6-9 16-15 26-15 5 0 11 1 15 4 15 9 19 27 11 41l-46 81 86 0c17 0 30 13 30 30l0 286c0 17-13 30-30 30z m-377-447c-2-3-5-5-9-5-2 0-4 0-5 1-5 3-6 9-4 14 0 0 0 0 1 0l50 91 23 0z m161 5c0-6-4-10-10-10-6 0-10 4-10 10l0 96 20 0z m158 5c0 0 1 0 1 0 2-5 1-11-4-14-1-1-3-1-5-1-4 0-7 2-9 5l-57 101 23 0z m68 121c0-6-4-10-10-10l-103 0c0 0 0 0 0 0l-47 0c0 0 0 0 0 0l-153 0c0 0 0 0-1 0l-46 0c0 0 0 0 0 0l-102 0c-6 0-10 4-10 10l0 286c0 6 4 10 10 10l186 0c6 0 10 4 10 10 0 17 13 30 30 30 17 0 30-13 30-30 0-6 4-10 10-10l186 0c6 0 10-4 10-10z m-33 273l-406 0c-6 0-10-4-10-10l0-243c0-6 4-10 10-10l406 0c6 0 10 4 10 10l0 243c0 6-4 10-10 10z m-10-243l-386 0 0 223 386 0z m-153 180l-140 0c-6 0-10-4-10-10 0-6 4-10 10-10l140 0c6 0 10 4 10 10 0 6-4 10-10 10z m0-60l-180 0c-6 0-10-4-10-10 0-6 4-10 10-10l180 0c6 0 10 4 10 10 0 6-4 10-10 10z m0-60l-180 0c-6 0-10-4-10-10 0-6 4-10 10-10l180 0c6 0 10 4 10 10 0 6-4 10-10 10z"/>
<glyph glyph-name="017-money-4" unicode="&#71;" d="M379 396c-6 0-10-4-10-10 0-6 4-10 10-10 6 0 10 4 10 10 0 6-4 10-10 10z m-206-300c-6 0-10-4-10-10 0-6 4-10 10-10 6 0 10 4 10 10 0 6-4 10-10 10z m-40 300c-6 0-10-4-10-10 0-6 4-10 10-10 6 0 10 4 10 10 0 6-4 10-10 10z m123 0c-6 0-10 4-10 10 0 6 4 10 10 10 4 0 7-2 11-5 4-4 10-4 14 0 4 4 4 10 0 14-5 5-10 8-15 9l0 12c0 6-4 10-10 10-6 0-10-4-10-10l0-12c-12-4-20-15-20-28 0-17 13-30 30-30 6 0 10-4 10-10 0-6-4-10-10-10-4 0-9 3-13 8-4 4-10 4-14 1-4-4-5-10-1-14 5-7 11-11 18-13l0-12c0-6 4-10 10-10 6 0 10 4 10 10l0 12c12 4 20 15 20 28 0 17-13 30-30 30z m254-88c-1 4-3 7-6 11 0 0 0 0 0 0l-55 56 0 111c0 6-4 10-10 10l-366 0c-6 0-10-4-10-10l0-111-55-56c0 0 0 0 0 0-3-4-5-7-6-11-1-3-2-7-2-10l0-243c0-12 6-23 15-31 0 0 0 0 1 0 0 0 0 0 0 0 7-5 15-8 23-8l434 0c9 0 18 3 25 9 0 0 0 1 0 1 0 0 0 0 0 0 9 7 14 18 14 29l0 243c0 3-1 7-2 10z m-61-22l0 60 39-39-39-33z m-20 190l0-33c-15 7-26 18-33 33z m-55 0c9-26 29-46 55-55l0-70c-26-9-46-29-55-55l-77 0c3 4 7 9 10 14 12 21 19 48 19 76 0 28-7 55-19 76-3 5-7 10-10 14z m55-147l0-33-33 0c7 15 18 26 33 33z m-173 147c27 0 50-41 50-90 0-49-23-90-50-90-27 0-50 41-50 90 0 49 23 90 50 90z m-173 0l33 0c-7-15-18-26-33-33z m0-55c26 9 46 29 55 55l77 0c-3-4-7-9-10-14-12-21-19-48-19-76 0-28 7-55 19-76 3-5 7-10 10-14l-77 0c-9 26-29 46-55 55z m0-92c15-7 26-18 33-33l-33 0z m0-53l47 0c0 0 0 0 0 0 0 0 0 0 1 0l250 0c1 0 1 0 1 0 0 0 0 0 0 0l47 0 0-20 0 0-345 0-1 0z m47-60l-23 20 298 0-23-20z m229-20l-24-20-158 0-24 20z m-296 150l0-72-39 33z m-41-300c-1 3-2 6-2 9l0 229 138-118z m451-10l-432 0 137 120 157 0 138-120c0 0 0 0 0 0z m19 19c0-2-1-5-2-8l-136 119 138 118z m-153 41l-123 0c-6 0-10-4-10-10 0-6 4-10 10-10l123 0c6 0 10 4 10 10 0 6-4 10-10 10z"/>
<glyph glyph-name="017-payment" unicode="&#72;" d="M435 435l17 0 0-17-17 0z m-324-298l77 0 0-18-77 0z m0-35l77 0 0-17-77 0z m272 32c-2 6-7 12-12 15l-17 8c-4 2-5 6-3 10 1 2 3 4 6 4l3 0c4 0 7-4 7-8l0-1 17 0 0 1c0 11-7 20-17 23l0 10-17 0 0-10c-13-3-20-17-16-30 2-6 6-11 12-14l17-9c3-2 5-6 3-10-1-2-4-4-6-4l-3 0c-4 0-7 4-7 8l0 1-17 0 0-1c0-11 7-20 17-23l0-10 17 0 0 10c13 4 20 17 16 30z m103 79l0 273c0 5-3 9-8 9l-44 0c-4 10-14 17-24 17l-17 0c-11 0-21-7-24-17l-38 0c-3 10-13 17-24 17l-17 0c-11 0-20-7-24-17l-37 0c-4 10-13 17-24 17l-17 0c-11 0-21-7-24-17l-38 0c-3 10-13 17-24 17l-17 0c-10 0-20-7-24-17l-44 0c-5 0-8-4-8-9l0-477c0-5 3-9 8-9l341 0c80 0 145 65 145 145 0 24-5 47-17 68z m-93 282l17 0c4 0 8-4 8-9 0-4-4-8-8-8l-17 0c-5 0-9 4-9 8 0 5 4 9 9 9z m-103 0l17 0c5 0 9-4 9-9 0-4-4-8-9-8l-17 0c-5 0-8 4-8 8 0 5 3 9 8 9z m-102 0l17 0c5 0 8-4 8-9 0-4-3-8-8-8l-17 0c-5 0-9 4-9 8 0 5 4 9 9 9z m-103 0l17 0c5 0 9-4 9-9 0-4-4-8-9-8l-17 0c-4 0-8 4-8 8 0 5 4 9 8 9z m-59-77l392 0 0 17-392 0 0 43 35 0c4-10 14-17 24-17l17 0c11 0 21 7 24 17l38 0c3-10 13-17 24-17l17 0c11 0 20 7 24 17l37 0c4-10 13-17 24-17l17 0c11 0 21 7 24 17l38 0c3-10 13-17 24-17l17 0c10 0 20 7 24 17l35 0 0-240c-12 15-26 26-42 35l0 0 0 102c0 5-4 9-9 9l-341 0c-5 0-9-4-9-9l0-204c0-5 4-9 9-9l137 0c0-6-1-11-1-17 0-34 13-68 35-94l-222 0z m332-102l0 51 52 0 0-51z m52-17l0-18c-17 6-34 9-52 9l0 9z m-120 17l0 51 51 0 0-51z m51-17l0-10c-18-2-35-7-51-16l0 26z m-119-52l0 52 51 0 0-37c-6-4-12-9-17-15z m19-17c-8-11-14-23-19-36l0 36z m-19 86l0 51 51 0 0-51z m-68-69l0 52 51 0 0-52z m51-17l0-51-51 0 0 51z m-51 86l0 51 51 0 0-51z m-69-69l0 52 52 0 0-52z m52-17l0-51-52 0 0 51z m-52 86l0 51 52 0 0-51z m-59-299l0 17 239 0c8-6 16-12 25-17z m332 0c-70 0-128 57-128 128 0 71 58 128 128 128 71 0 128-57 128-128 0-71-57-128-128-128z m-59 137l17 0 0-17-17 0z m102 0l17 0 0-17-17 0z m-333-17l17 0 0-18-17 0z m0-35l17 0 0-17-17 0z m290 154c-61 0-111-50-111-111 0-61 50-111 111-111 62 0 111 50 111 111 0 61-49 111-111 111z m0-205c-51 0-93 42-93 94 0 52 42 94 93 94 52 0 94-42 94-94 0-52-42-94-94-94z"/>
<glyph glyph-name="018-coin-1" unicode="&#73;" d="M154 230l-17 0 0 35c0 4-4 8-9 8l-119 0c-5 0-9-4-9-8l0-43c0-5 4-9 9-9l17 0 0-25-9 0c-5 0-8-4-8-9l0-34c-5 0-9-4-9-8l0-128c0-5 4-9 9-9l119 0c5 0 9 4 9 9l0 119c4 0 8 4 8 9l0 34 9 0c4 0 8 3 8 8l0 43c0 5-4 8-8 8z m-137 0l0 26 102 0 0-26z m102-213l-102 0 0 26 102 0z m0 43l-102 0 0 25 102 0z m0 42l-102 0 0 26 102 0z m9 43l-102 0 0 26 102 0z m17 43l-102 0 0 25 102 0z m179 0l-119 0c-5 0-9-4-9-9l0-34-17 0c-5 0-8-4-8-8l0-43c0-5 3-9 8-9l9 0 0-76c0-5 4-9 8-9l120 0c4 0 8 4 8 9l0 85c0 5-4 8-8 8l-9 0 0 26 17 0c5 0 9 4 9 9l0 42c0 5-4 9-9 9z m-136-86l0 26 102 0 0-26z m119-85l-102 0 0 26 102 0z m0 43l-102 0 0 25 102 0z m9 85l-103 0 0 26 103 0z m187 26c5 0 9 3 9 8l0 43c0 5-4 8-9 8l-8 0 0 35c0 4-4 8-9 8l-119 0c-5 0-9-4-9-8l0-43c0-5 4-9 9-9l8 0 0-25-8 0c-5 0-9-4-9-9l0-42c0-5 4-9 9-9l8 0 0-119c0-5 4-9 9-9l119 0c5 0 9 4 9 9l0 128c0 4-4 8-9 8l-8 0 0 26z m-128 85l103 0 0-26-103 0z m0-111l0 26 103 0 0-26z m120-128l-102 0 0 26 102 0z m0 43l-102 0 0 25 102 0z m0 42l-102 0 0 26 102 0z m-102 86l0 25 102 0 0-25z m-359 307l0 17-17 0 0-17-17 0 0-17 17 0 0-17 17 0 0 17 17 0 0 17z m410-145l0 17-17 0 0-17-17 0 0-17 17 0 0-17 17 0 0 17 17 0 0 17z m-350 8l0 17-17 0 0-17-17 0 0-17 17 0 0-17 17 0 0 17 17 0 0 17z m392 137l0 17-17 0 0-17-17 0 0-17 17 0 0-17 17 0 0 17 17 0 0 17z m-137-111c-10 22-28 40-50 50l0 27-17 0 0-32c0-4 2-7 5-8 44-17 66-67 48-111-17-44-66-65-110-48-44 17-66 66-48 110 8 21 23 38 43 47 2 1 3 1 5 2 3 1 5 4 5 8l0 49-17 0 0-44 0 0c-51-23-74-84-50-135 23-52 84-74 136-51 51 24 74 85 50 136z m-102 102l18 0 0-42-18 0z m34-156c-2 7-7 12-13 15l-16 8c-4 2-6 6-4 10 1 2 4 4 7 4l2 0c4 0 8-3 8-7l0-2 17 0 0 2c0 10-7 20-17 23l0 10-18 0 0-10c-12-4-19-18-15-31 1-6 6-11 12-14l16-8c4-2 6-7 4-10-1-3-4-4-7-4l-2 0c-4 0-8 3-8 7l0 1-17 0 0-1c0-11 7-20 17-23l0-10 18 0 0 10c12 4 19 17 16 30z m1 165l17 0 0-17-17 0z m-69 17l17 0 0-17-17 0z m86-162l17 0 0-17-17 0z m-103 0l17 0 0-17-17 0z"/>
<glyph glyph-name="018-settings" unicode="&#74;" d="M196 366c-6 0-10-4-10-10 0-6 4-10 10-10 6 0 10 4 10 10 0 6-4 10-10 10z m60 60c-94 0-170-76-170-170 0-94 76-170 170-170 94 0 170 76 170 170 0 94-76 170-170 170z m0-320c-83 0-150 67-150 150 0 83 67 150 150 150 83 0 150-67 150-150 0-83-67-150-150-150z m0 280c-8 0-16-1-23-2-6-1-9-6-8-12 1-5 6-9 11-8 7 1 13 2 20 2 61 0 110-49 110-110 0-61-49-110-110-110-61 0-110 49-110 110 0 23 7 46 21 65 3 4 2 10-2 14-4 3-11 2-14-2-16-23-25-49-25-77 0-72 58-130 130-130 72 0 130 58 130 130 0 72-58 130-130 130z m20-120l-10 0 0 40 10 0c6 0 10-4 10-10 0-6 4-10 10-10 6 0 10 4 10 10 0 17-13 30-30 30l-10 0 0 10c0 6-4 10-10 10-6 0-10-4-10-10l0-10-10 0c-17 0-30-13-30-30l0-20c0-17 13-30 30-30l10 0 0-40-10 0c-6 0-10 4-10 10 0 6-4 10-10 10-6 0-10-4-10-10 0-17 13-30 30-30l10 0 0-10c0-6 4-10 10-10 6 0 10 4 10 10l0 10 10 0c17 0 30 13 30 30l0 20c0 17-13 30-30 30z m-30 0l-10 0c-6 0-10 4-10 10l0 20c0 6 4 10 10 10l10 0z m40-50c0-6-4-10-10-10l-10 0 0 40 10 0c6 0 10-4 10-10z m218 80l-43 9c-5 22-14 42-25 61l19 33c3 4 2 9-1 13l-42 42c-4 3-9 4-13 1l-33-19c-19 11-39 20-61 25l-9 43c-1 5-5 8-10 8l-60 0c-5 0-9-3-10-8l-9-43c-22-5-42-14-61-25l-33 19c-4 3-9 2-13-1l-42-42c-3-4-4-9-1-13l19-33c-11-19-20-39-25-61l-43-9c-5-1-8-5-8-10l0-60c0-5 3-9 8-10l43-9c6-22 14-42 26-61l-20-33c-3-4-2-9 1-13l42-42c4-3 9-4 13-1l34 20c18-11 38-20 59-25l10-44c1-5 5-8 10-8l60 0c5 0 9 3 10 8l10 44c21 5 41 14 59 25l34-20c4-3 9-2 13 1l42 42c3 4 4 9 1 13l-20 33c12 19 20 39 26 61l43 9c5 1 8 5 8 10l0 60c0 5-3 9-8 10z m-12-62l-42-9c-4-1-7-4-7-8-5-23-15-45-28-65-2-3-2-7 0-11l19-32-31-31-33 19c-3 2-7 2-10 0-20-13-42-22-65-26-4-1-7-4-8-8l-9-43-44 0-9 43c-1 4-4 7-8 8-23 4-45 13-65 26-3 2-7 2-10 0l-33-19-31 31 19 32c2 4 2 8 0 11-13 20-23 42-28 65 0 4-3 7-7 8l-42 9 0 44 41 9c4 1 7 4 8 8 5 23 14 46 27 66 2 3 3 7 1 10l-19 32 31 31 32-19c3-2 7-1 10 1 20 13 43 22 66 27 4 1 7 4 8 8l9 41 44 0 9-41c1-4 4-7 8-8 23-5 46-14 66-27 3-2 7-3 10-1l32 19 31-31-19-32c-2-3-1-7 1-10 13-20 22-43 27-66 1-4 4-7 8-8l41-9z"/>
<glyph glyph-name="019-banking-1" unicode="&#75;" d="M96 206c-6 0-10-4-10-10 0-6 4-10 10-10 6 0 10 4 10 10 0 6-4 10-10 10z m220 40l-10 0 0 40 10 0c6 0 10-4 10-10 0-6 4-10 10-10 6 0 10 4 10 10 0 17-13 30-30 30l-10 0 0 10c0 6-4 10-10 10-6 0-10-4-10-10l0-10-10 0c-17 0-30-13-30-30l0-20c0-17 13-30 30-30l10 0 0-40-10 0c-6 0-10 4-10 10 0 6-4 10-10 10-6 0-10-4-10-10 0-17 13-30 30-30l10 0 0-10c0-6 4-10 10-10 6 0 10 4 10 10l0 10 10 0c17 0 30 13 30 30l0 20c0 17-13 30-30 30z m-30 0l-10 0c-6 0-10 4-10 10l0 20c0 6 4 10 10 10l10 0z m40-50c0-6-4-10-10-10l-10 0 0 40 10 0c6 0 10-4 10-10z m139-110c0 0 0 0 0 0 0 0 0 0 0 1 0 0 0 0 0 0 1 0 1 1 1 1 0 0 0 0 0 0 0 0 0 1 0 1 0 0 0 0 0 0 0 1 0 1 0 1l0 392c0 17-13 30-30 30l-320 0c-39 0-70-31-70-70l0-392c0 0 0 0 0 0 0 0 0 0 0 0 0-28 22-50 50-50l360 0c3 0 7 2 9 5 1 3 1 6 0 9l-7 14c-7 14-7 30 0 44z m-399 356c0 28 22 50 50 50l8 0 0-392-28 0c-11 0-21-4-30-10z m374-422l-344 0c-17 0-30 13-30 30 0 8 3 16 9 21 5 6 13 9 21 9l344 0c-9-19-9-41 0-60z m6 80l-302 0 0 392 292 0c6 0 10-4 10-10z m-350 309c-6 0-10-4-10-10l0-163c0-6 4-10 10-10 6 0 10 4 10 10l0 163c0 6-4 10-10 10z m300 43l-200 0c-6 0-10-4-10-10l0-83c0-6 4-10 10-10l200 0c6 0 10 4 10 10l0 83c0 6-4 10-10 10z m-10-83l-180 0 0 63 180 0z m-30 40l-120 0c-6 0-10-4-10-10 0-6 4-10 10-10l120 0c6 0 10 4 10 10 0 6-4 10-10 10z"/>
<glyph glyph-name="019-loan" unicode="&#76;" d="M500 366c0 0 0 0 0 0l-61 40 2 0 0 62c0 5-4 9-9 9l-44 0c-5 0-9-4-9-9l0-22-83 56c-3 2-7 2-10 0l-203-136c-13-8-16-25-8-38 8-12 25-16 37-8 1 0 1 1 1 1l28 19 0-172-17 0c0 5-4 9-9 9l-71 0c-5 0-9-4-9-9l-35 0 0-18 35 0 0-88-35 0 0-18 35 0c0-5 4-9 9-9l71 0c5 0 9 4 9 9l0 4 65-28c36-14 76-15 113-1l136 52c8 3 15 9 18 17 4 8 4 17 1 25-3 8-9 14-16 17l0 210 29-19c12-9 29-6 37 7 9 12 6 29-7 38z m-394-313l-53 0 0 106 53 0z m291 406l27 0 0-42-27 17z m43-364c-2-3-5-6-8-8l-137-52c-32-12-67-11-99 2l-72 30 0 83 22 0c29 0 58-7 84-20 9-4 18-6 28-6l68 0c8 0 14-6 14-14 0-6-5-11-11-12-1-1-2-1-3-1l-105 0 0-17 105 0c0 0 0 0 0 0 1 0 1 0 1 0 7 0 14 1 20 4l74 31c4 2 8 2 11 0 4-1 7-4 8-8 2-4 2-8 0-12z m-114 46l-68 0c-7 0-14 2-20 5-25 12-52 20-79 21l0 184 132 89 133-89 0-217c-4-1-7-1-10-3l-57-24c0 1 0 2 0 3 0 17-13 31-31 31z m163 194l0 0c-3-2-7-2-10 0l-183 122c-3 2-7 2-10 0l-183-122c-4-3-10-1-13 3-1 2-2 3-2 5 0 3 2 6 4 8l199 133 199-133c3-2 4-5 4-8 0-3-2-7-5-8z m-418-247l17 0 0-17-17 0z m246 174c-3 7-7 12-13 15l-17 9c-4 2-6 6-4 10 1 2 4 4 7 4l2 0c5 0 8-3 8-7l0-2 18 0 0 2c0 11-8 20-18 23l0 11-18 0 0-11c-13-4-20-18-16-31 2-6 7-12 13-15l17-9c4-1 5-6 3-10-1-2-4-4-7-4l-2 0c-4 0-8 4-8 8l0 1-17 0 0-1c0-11 7-21 17-24l0-10 18 0 0 10c13 4 21 18 17 31z m-26 100c-49 0-88-40-88-88 0-49 39-89 88-89 49 0 88 40 88 89 0 48-39 88-88 88z m0-159c-39 0-70 32-70 71 0 39 31 70 70 70 39 0 71-31 71-70 0-39-32-71-71-71z m35 79l18 0 0-17-18 0z m-88 0l18 0 0-17-18 0z"/>
<glyph glyph-name="020-growth-1" unicode="&#77;" d="M421 269l0 17-17 0 0 183c0 4-4 8-9 8l-70 0c-4 0-8-4-8-8l0-183-18 0 0 113c0 5-3 9-8 9l-70 0c-5 0-8-4-8-9l0-113-18 0 0 44c0 5-4 8-8 8l-70 0c-5 0-9-3-9-8l0-44-17 0 0-17 156 0 0-62c-11 12-27 19-43 19l-52 0c-5 0-9-4-9-9 0-34 27-61 61-61l43 0 0-17-95 0c-14 0-26-12-26-26 0-12 7-22 19-25l16-81c1-4 4-7 8-7l174 0c4 0 7 3 8 7l16 81c14 4 22 18 18 32-3 11-13 19-25 19l-95 0 0 35 43 0c34 0 61 27 61 60 0 5-4 9-9 9l-52 0c-16 0-32-7-43-18l0 44z m-87 191l52 0 0-174-52 0z m-156-174l-52 0 0 35 52 0z m26-112c-21 0-38 14-43 34l43 0c21 0 38-14 42-34z m104 52l43 0c-5-21-22-35-43-35l-42 0c4 20 21 35 42 35z m52-105c5 0 9-3 9-8 0-5-4-9-9-9l-17 0 0-17 7 0-14-70-160 0-14 70 129 0 0 17-139 0c-5 0-9 4-9 9 0 5 4 8 9 8z m-130 165l0 105 52 0 0-105z m121 226l53 0 0-17-53 0z m-43-408l17 0 0-17-17 0z m9 408l17 0 0-17-17 0z m-70-69l52 0 0-18-52 0z m-34 0l17 0 0-18-17 0z m-70-70l52 0 0-17-52 0z m-35 0l18 0 0-17-18 0z"/>
<glyph glyph-name="020-hourglass" unicode="&#78;" d="M256 183c-6 0-10-4-10-10 0-6 4-10 10-10 6 0 10 4 10 10 0 6-4 10-10 10z m130-103l-1 0-8 75c-3 30-17 57-40 77-10 9-21 16-33 21 39 17 67 53 73 97 0 0 0 0 0 0 0 0 0 0 0 0 0 1 0 1 0 1l8 81 1 0c11 0 21 4 28 12 8 7 12 17 12 28 0 22-18 40-40 40l-260 0c-11 0-21-4-28-12-8-7-12-17-12-28 0-22 18-40 40-40l1 0 8-81c0 0 0 0 0-1 0 0 0 0 0 0 0 0 0 0 0 0 6-44 34-80 73-97-39-17-68-54-73-98l-8-75-1 0c-11 0-21-4-28-12-8-7-12-17-12-28 0-22 18-40 40-40l260 0c11 0 21 4 28 12 8 7 12 17 12 28 0 22-18 40-40 40z m-260 372c-11 0-20 9-20 20 0 5 2 10 6 14 4 4 9 6 14 6l260 0c11 0 20-9 20-20 0-5-2-10-6-14-4-4-9-6-14-6z m21-20l218 0-7-71-204 0z m10-91l198 0c-11-45-51-78-99-78-48 0-88 33-99 78z m-2-188c5 48 44 85 91 90l0-30c0-6 4-10 10-10 6 0 10 4 10 10l0 29c21-2 42-10 58-25 19-17 30-40 33-64l7-65-98 53c-1 0-2 0-3 0-4 2-10 2-15 0 0 0-1 0-2 0l-98-53z m181-73l-160 0 79 42c1 0 2 0 3 0z m64-54c-4-4-9-6-14-6l-260 0c-11 0-20 9-20 20 0 5 2 10 6 14 4 4 9 6 14 6l10 0c0 0 0 0 0 0l240 0c0 0 0 0 0 0 0 0 0 0 0 0l10 0c11 0 20-9 20-20 0-5-2-10-6-14z"/>
<glyph glyph-name="021-eye" unicode="&#79;" d="M196 347c-6 0-10-5-10-10 0-6 4-10 10-10 6 0 10 4 10 10 0 5-4 10-10 10z m60-80c-6 0-10 4-10 10 0 5 4 10 10 10 4 0 7-2 11-6 4-3 10-3 14 1 4 4 4 10 0 14-5 5-10 7-15 9l0 12c0 5-4 10-10 10-6 0-10-5-10-10l0-12c-12-4-20-15-20-28 0-17 13-30 30-30 5 0 10-5 10-10 0-6-5-10-10-10-4 0-9 2-13 7-4 4-10 5-14 1-4-3-5-9-1-14 5-6 11-10 18-13l0-11c0-6 4-10 10-10 6 0 10 4 10 10l0 11c12 4 20 16 20 29 0 16-13 30-30 30z m69 75c-26 21-60 29-93 22-6-1-9-7-8-12 1-5 6-9 12-8 27 6 55 0 76-17 22-18 34-43 34-70 0-50-40-90-90-90-50 0-90 40-90 90 0 14 4 29 11 42 2 5 0 11-4 14-5 2-11 0-14-4-8-16-13-34-13-52 0-61 49-110 110-110 61 0 110 49 110 110 0 33-15 64-41 85z m185-80c-1 2-30 39-75 76-27 23-54 40-81 53-33 16-66 24-98 24-32 0-65-8-98-24-27-13-54-30-81-53-45-37-74-74-75-76-3-4-3-8 0-12 1-2 30-39 75-76 27-23 54-40 81-53 33-16 66-24 98-24 32 0 65 8 98 24 27 13 54 30 81 53 45 37 74 74 75 76 3 4 3 8 0 12z m-254-145c-65 0-126 39-166 72-33 27-57 55-67 67 10 12 34 40 67 67 40 33 101 72 166 72 65 0 126-39 166-72 33-27 57-55 67-67-23-28-122-139-233-139z"/>
<glyph glyph-name="021-global" unicode="&#80;" d="M97 120l14 0 0 17-14 0c-15 0-27-12-28-26l-9 0 0-17 8 0 0-17-8 0 0-17 9 0c1-15 13-26 28-26l14 0 0 17-14 0c-5 0-10 4-11 9l16 0 0 17-17 0 0 17 17 0 0 17-16 0c1 5 6 9 11 9z m354 296c-2 6-6 11-12 14l-17 8c-3 2-5 7-3 10 1 3 4 4 6 4l3 0c4 0 7-3 7-7l0-1 17 0 0 1c0 11-7 20-17 23l0 10-17 0 0-10c-13-4-20-17-16-30 2-7 7-12 13-15l16-8c4-2 5-6 3-10-1-2-3-4-6-4l-3 0c-4 0-7 3-7 7l0 2-17 0 0-2c0-10 7-20 17-23l0-10 17 0 0 10c13 4 20 18 16 31z m61 11c0 47-38 85-85 85-23 0-45-9-61-25-34 17-72 25-110 25-141 0-256-115-256-256 0-38 9-76 25-110-33-33-33-87 0-121 33-33 87-33 120 0 1 0 1 0 1 0 34-16 72-25 110-25 141 0 256 115 256 256 0 38-8 76-25 110 16 16 25 38 25 61z m-320 59c-21-19-38-42-49-69-2 1-4 1-6 1-21 0-38-14-42-34l-40 0c31 50 80 86 137 102z m-30-111c0-14-11-25-25-25-15 0-26 11-26 25 0 15 11 26 26 26 14 0 25-11 25-26z m-117-8l50 0c3-13 11-24 23-30-4-24-6-48-7-72l-94 0c2 35 11 70 28 102z m-28-119l94 0c1-29 4-57 10-85-27 12-58 10-82-6-13 28-21 59-22 91z m68-231c-37 0-68 31-68 68 0 38 31 69 68 69 38 0 69-31 69-69 0-37-31-68-69-68z m72 22c3 5 6 11 8 17 8-11 17-21 27-30-12 3-24 8-35 13z m91-21c-29 3-56 25-78 61 1 2 1 4 1 6 0 15-4 30-12 43l89 0z m0 127l-102 0c-1 2-3 3-4 4-9 32-13 65-14 99l120 0z m0 120l-120 0c1 23 3 45 7 68 1 0 1 0 2 0 20 0 37 14 41 34l70 0z m0 119l-70 0c-2 11-9 21-19 27 23 50 55 79 89 83z m179 111c37 0 68-31 68-68 0-38-31-69-68-69-38 0-69 31-69 69 0 37 31 68 69 68z m-72-22c-3-5-6-11-8-17-8 11-17 21-27 30 12-3 24-7 35-13z m-90 21c28-3 55-25 77-61 0-2-1-4-1-6 0-15 4-30 12-43l-88 0z m0-127l101 0c1-1 3-3 4-4 9-32 13-65 14-98l-119 0z m0-119l119 0c-1-23-3-46-7-69 0 0-1 0-2 0-20 0-37-14-41-34l-69 0z m136-111c0-15-11-26-26-26-14 0-25 11-25 26 0 14 11 25 25 25 15 0 26-11 26-25z m-136-119l0 110 69 0c2-11 9-21 19-27-23-49-54-79-88-83z m55 8l0 0c21 19 38 43 49 69 2-1 4-1 6-1 21 0 38 14 42 34l41 0c-32-50-81-86-138-102z m148 119l-51 0c-2 13-11 24-23 30 4 24 6 48 7 73l94 0c-2-36-11-71-27-103z m27 120l-94 0c-1 28-4 56-10 84 27-12 58-10 82 6 13-28 21-59 22-90z m-34 170l17 0 0-17-17 0z m-86 0l18 0 0-17-18 0z m-255-341l17 0 0-17-17 0z m-86 0l17 0 0-17-17 0z"/>
<glyph glyph-name="022-growth" unicode="&#81;" d="M289 416c-2 6-6 11-12 14l-17 8c-4 2-5 7-3 10 1 3 4 4 6 4l3 0c4 0 7-3 7-7l0-1 17 0 0 1c0 11-7 20-17 23l0 10-17 0 0-10c-13-4-20-18-16-30 2-7 6-12 12-15l17-8c4-2 5-6 3-10-1-2-3-4-6-4l-3 0c-4 0-7 3-7 7l0 2-17 0 0-2c0-10 7-20 17-23l0-10 17 0 0 10c13 4 20 18 16 31z m-80-253l-9 15c-25-15-38-43-38-81 0-18 9-35 25-44l9 14c-10 6-17 17-17 30 0 22 5 51 30 66z m252 59l0 17-17 0 0-17-17 0 0-17 17 0 0-17 17 0 0 17 17 0 0 17z m-393-9l0 17-17 0 0-17-17 0 0-17 17 0 0-17 17 0 0 17 17 0 0 17z m34 231l0 17-17 0 0-17-17 0 0-17 17 0 0-17 17 0 0 17 17 0 0 17z m333-51l0 17-17 0 0-17-17 0 0-18 17 0 0-17 17 0 0 17 17 0 0 18z m-222 42l17 0 0-17-17 0z m86 0l17 0 0-17-17 0z m34-215l0 45c0 2-1 4-3 6 23 16 37 42 37 70 0 5-4 9-9 9l-17 0c-27 0-52-13-68-34l0 26c47 4 81 46 76 93-4 47-46 81-93 77-47-5-81-47-76-94 4-40 36-72 76-76l0-26c-16 21-41 34-68 34l-17 0c-5 0-9-4-9-9 0-28 14-54 37-70-2-2-3-4-3-6l0-45c-49-17-77-63-77-130 0-57 53-90 146-90 92 0 145 33 145 90 0 67-28 113-77 130z m8 113l8 0c-4-34-33-60-67-60l-8 0c4 34 33 60 67 60z m-145 94c0 37 31 68 69 68 37 0 68-31 68-68 0-38-31-69-68-69-38 0-69 31-69 69z m69-171l51 0 0-34-103 0 0 34z m-85 77l8 0c34 0 63-26 67-60l-8 0c-34 0-63 26-67 60z m85-316c-39 0-128 7-128 73 0 43 12 99 69 115l117 0c57-16 70-72 70-115 0-66-90-73-128-73z m-60 43l17 0 0-17-17 0z"/>
<glyph glyph-name="022-security-1" unicode="&#82;" d="M116 346c-6 0-10-4-10-10 0-6 4-10 10-10 6 0 10 4 10 10 0 6-4 10-10 10z m323 105l-180 60c-2 1-4 1-6 0l-180-60c-4-1-7-5-7-9l0-263c0-36 18-71 49-91l124-83c5-3 11-5 17-5 6 0 12 2 17 5l124 83c31 20 49 55 49 91l0 263c0 4-3 8-7 9z m-13-272c0-30-15-58-40-74 0 0 0 0 0 0l-124-83c-4-3-8-3-12 0l-124 83c-25 16-40 44-40 74l0 256 170 56 170-56z m-27 240l-139 51c-1 0-1 1-2 1-2 0-4 0-6-1l-139-51c-4-1-7-5-7-9l0-34c0-5 4-10 10-10 6 0 10 5 10 10l0 27 120 44 0-161-120 0 0 10c0 5-4 10-10 10-6 0-10-5-10-10l0-117c0-23 12-45 31-58l113-75c0 0 0 0 0 0l0 0c0 0 0 0 1 0 0 0 0-1 0-1 0 0 1 0 1 0 0 0 0 0 0 0 0 0 0 0 0 0 1 0 1 0 1 0 0 0 0-1 0-1 1 0 1 0 1 0 0 0 0 0 0 0 1 0 1 0 2 0 0 0 0 0 1 0 0 0 0 0 0 0 0 0 1 0 1 0 0 0 0 0 0 0 1 0 1 1 1 1 1 0 1 0 1 0 0 0 0 0 1 0 0 0 0 0 0 0 0 1 0 1 1 1l113 75c19 13 31 35 31 58l0 231c0 4-3 8-7 9z m-153-346l-98 65c-14 9-22 25-22 41l0 87 120 0z m140 106c0-16-8-32-22-41l-98-65 0 193 120 0z m0 107l-120 0 0 161 120-44z"/>
<glyph glyph-name="023-currency" unicode="&#83;" d="M511 348c-5 96-87 169-183 164-88-5-159-76-164-164-96-6-169-88-163-184 5-92 81-164 173-164 92 0 168 72 173 164 96 6 170 88 164 184z m-347-327c-85 5-149 78-144 163 5 77 67 138 144 143l0 0c0-7 1-13 2-20-73-4-129-67-125-140 1-26 10-52 26-73l17 12c-38 50-28 121 22 158 19 14 42 22 65 23 17-55 60-98 115-115-1-63-53-112-115-111-19 1-37 6-54 16l-10-18c64-37 145-15 182 48 10 19 16 39 17 60 7-1 14-2 21-3-5-84-78-149-163-143z m174 163c-85 0-154 69-154 154 0 85 69 153 154 154 84 0 153-69 153-154 0-85-69-154-153-154z m-151 21l7 0 0 20-7 0c-17 0-32-13-33-30l-11 0 0-21 10 0 0-10-10 0 0-21 11 0c1-17 16-30 33-30l7 0 0 20-7 0c-6 0-11 4-13 10l10 0 0 21-10 0 0 10 10 0 0 21-10 0c2 6 7 10 13 10z m-85-21l21 0 0-20-21 0z m113 0l20 0 0-20-20 0z m273 33c-17-95-89-171-183-191l4-20c102 22 181 104 199 207z m-286 289c-102-22-181-104-199-207l20-4c17 95 89 171 184 191z m165-181c-2 7-8 14-15 17l-20 10c-4 2-6 7-4 12 2 3 5 5 8 5l3 0c5 0 9-4 9-9l0-2 20 0 0 2c0 13-8 24-20 28l0 11-21 0 0-11c-15-5-24-21-19-37 3-7 8-14 15-17l20-10c4-2 6-8 4-12-2-3-5-5-8-5l-3 0c-5 0-9 4-9 9l0 1-20 0 0-1c0-13 8-24 20-28l0-12 21 0 0 12c15 5 24 21 19 37z m77 93l-16-13c37-49 27-120-23-157-50-37-120-27-157 23-38 49-28 120 22 157 36 27 85 30 124 7l10 18c-64 37-145 15-182-49-36-63-15-145 49-181 20-12 43-18 67-18 73 0 133 59 133 133 0 29-10 57-27 80z m-178-70l20 0 0-20-20 0z m123 0l20 0 0-20-20 0z"/>
<glyph glyph-name="023-wallet" unicode="&#84;" d="M366 173c-6 0-10-4-10-10 0-6 4-10 10-10 6 0 10 4 10 10 0 6-4 10-10 10z m-260-70c-6 0-10-4-10-10 0-6 4-10 10-10 6 0 10 4 10 10 0 6-4 10-10 10z m170 336c0 17-13 30-30 30-17 0-30-13-30-30 0-8 3-15 8-20-5-5-8-12-8-20 0-17 13-30 30-30 17 0 30 13 30 30 0 8-3 15-8 20 5 5 8 12 8 20z m-30-50c-6 0-10 4-10 10 0 6 4 10 10 10 6 0 10-4 10-10 0-6-4-10-10-10z m0 40c-6 0-10 4-10 10 0 6 4 10 10 10 6 0 10-4 10-10 0-6-4-10-10-10z m0-326l-100 0c-6 0-10-4-10-10 0-6 4-10 10-10l100 0c6 0 10 4 10 10 0 6-4 10-10 10z m230 118l0 78c0 17-13 30-30 30l-10 0 0 50c0 17-13 30-30 30l-30 0 0 30c0 17-13 30-30 30l-30 0 0 13c0 17-13 30-30 30l-180 0c-17 0-30-13-30-30l0-73-10 0c-28 0-50-22-50-50l0-309c0-28 22-50 50-50l380 0c17 0 30 13 30 30l0 75c12 4 20 15 20 28l0 60c0 13-8 24-20 28z m-100 168l30 0c6 0 10-4 10-10l0-50-40 0z m-60 60l30 0c6 0 10-4 10-10l0-110-40 0z m-140 43l110 0c6 0 10-4 10-10l0-153-120 0z m-40 0l20 0 0-163-20 0z m-40-10c0 6 4 10 10 10l10 0 0-163-20 0z m-30-93l10 0 0-60-10 0c-17 0-30 13-30 30 0 17 13 30 30 30z m390-359c0-6-4-10-10-10l-380 0c-17 0-30 13-30 30l0 269c8-6 19-10 30-10l380 0c6 0 10-4 10-10l0-76-20 0 0 53c0 6-4 10-10 10l-360 0c-6 0-10-4-10-10l0-226c0-6 4-10 10-10l360 0c6 0 10 4 10 10l0 53 20 0z m-80 73l40 0 0-43-340 0 0 206 340 0 0-43-40 0c-16 0-31-6-42-18-12-11-18-26-18-42 0-33 27-60 60-60z m100 30c0-6-4-10-10-10l-90 0c-22 0-40 18-40 40 0 11 4 21 12 28 7 8 17 12 28 12l90 0c6 0 10-4 10-10z"/>
<glyph glyph-name="024-credit-card-1" unicode="&#85;" d="M478 358l-34 0-297 134c-17 8-38 0-45-17l-53-117-15 0c-19 0-34-15-34-34l0-273c0-19 15-34 34-34l444 0c19 0 34 15 34 34l0 273c0 19-15 34-34 34z m-68-17l58 0c-1-20-5-40-11-59l-47 0z m0-76l42 0c-11-27-26-45-42-50z m-293 203c2 4 6 7 10 9 4 1 9 1 13-1l262-118-83 0-209 94z m215-203c6-17 14-32 25-45-27 8-52 23-71 45z m-59 17c-12 18-20 38-23 59l67 0c1-20 4-40 10-59z m78-17l42 0 0-50c-17 5-32 23-42 50z m-6 17c-6 19-10 39-11 59l59 0 0-59z m-252 131l10 24 174-79-62 0-122 55z m-7-15l87-40-105 0z m409-347c0-9-8-17-17-17l-444 0c-9 0-17 8-17 17l0 273c0 10 8 17 17 17l198 0c14-93 101-157 194-143 25 4 48 13 69 26z m0 194c-15-11-32-20-50-25 11 13 19 28 25 45l25 0z m0 37l-20 0c5 19 9 38 10 58 6-3 10-9 10-16z m-341 34l-103 0c-5 0-8-4-8-9l0-68c0-5 3-9 8-9l103 0c4 0 8 4 8 9l0 68c0 5-4 9-8 9z m-94-17l17 0 0-17-17 0z m51-52l-51 0 0 18 25 0c5 0 9 3 9 8l0 26 17 0z m34 0l-17 0 0 52 17 0z m299-111c-8 6-17 9-26 9l0-17c14 0 26-11 26-26 0-14-12-25-26-25-5 0-10 1-14 4 0 1 1 2 1 2 1 3 3 6 3 10 1 0 1 1 1 2 0 2 1 5 1 7 0 3-1 6-1 8-1 2-1 3-1 5-1 1-1 2-1 3-1 1-2 3-3 5 0 0 0 1-1 1-1 2-2 4-3 6-1 0-1 0-1 0l0 0c-16 18-42 20-60 5-18-16-20-43-5-61 15-17 41-19 59-6 18-14 45-10 59 9 14 19 11 45-8 59z m-52-39c0 0 0 0 0-1-1-4-3-7-6-10 0 0 0 0 0-1-9-10-25-11-36-2-6 5-9 12-9 19 0 14 12 26 26 26 7 0 14-3 19-9 3-3 5-7 6-11 0 0 0 0 0 0 0-2 1-4 1-6 0-1-1-3-1-5z m-341 82l17 0 0-17-17 0z m0-68l17 0 0-17-17 0z m34 68l17 0 0-17-17 0z m34 0l18 0 0-17-18 0z m35 0l17 0 0-17-17 0z m34 0l17 0 0-17-17 0z m34 0l17 0 0-17-17 0z m34 0l17 0 0-17-17 0z m34 0l17 0 0-17-17 0z m-205-68l77 0 0-17-77 0z m-34-34l111 0 0-17-111 0z m145 34l17 0 0-17-17 0z m34 0l77 0 0-17-77 0z m-34-34l111 0 0-17-111 0z m162 34l17 0 0-17-17 0z"/>
<glyph glyph-name="024-purse" unicode="&#86;" d="M196 306c-6 0-10-4-10-10 0-6 4-10 10-10 6 0 10 4 10 10 0 6-4 10-10 10z m60 20c-8 0-16-1-23-2-6-1-9-6-8-12 1-5 6-9 11-8 7 1 13 2 20 2 61 0 110-49 110-110 0-61-49-110-110-110-61 0-110 49-110 110 0 23 7 46 21 65 3 4 2 10-2 14-4 3-11 2-14-2-16-23-25-49-25-77 0-72 58-130 130-130 72 0 130 58 130 130 0 72-58 130-130 130z m59-75c-13 15-31 24-50 24-19 0-36-9-50-24-6-7-11-16-14-25l-20 0c-6 0-10-4-10-10 0-6 4-10 10-10l15 0c0-4-1-7-1-11 0-3 1-6 1-9l-15 0c-6 0-10-4-10-10 0-6 4-10 10-10l19 0c4-10 9-19 15-27 14-16 31-24 50-24 17 0 33 7 46 19 4 4 4 10 0 14-4 4-10 4-14 0-9-8-20-13-32-13-13 0-25 6-34 17-4 4-7 9-9 14l52 0c6 0 10 4 10 10 0 6-4 10-10 10l-58 0c0 3-1 6-1 9 0 4 1 7 1 11l58 0c6 0 10 4 10 10 0 6-4 10-10 10l-51 0c2 4 5 8 8 12 9 11 21 17 34 17 14 0 26-6 35-17 4-4 10-5 14-1 5 3 5 10 1 14z m182-64l-25 34 0 75c0 61-49 110-110 110l-72 0 7 20c16 0 29 14 29 30 0 17-13 30-30 30-17 0-30-13-30-30 0-10 5-18 12-24l-9-26-26 0-9 26c7 6 12 14 12 24 0 17-13 30-30 30-17 0-30-13-30-30 0-16 13-30 29-30l7-20-72 0c-61 0-110-49-110-110l0-75-25-34c0 0 0 0 0 0-10-13-15-27-15-41 0-33 28-64 79-87 48-21 111-33 177-33 66 0 129 12 177 33 51 23 79 54 79 87 0 14-5 28-15 41z m-201 279c6 0 10-4 10-10 0-6-4-10-10-10-6 0-10 4-10 10 0 6 4 10 10 10z m-80-20c-6 0-10 4-10 10 0 6 4 10 10 10 6 0 10-4 10-10 0-6-4-10-10-10z m-156-150c0 50 40 90 90 90l86 0c0 0 0 0 0 0 0 0 0 0 0 0l40 0c0 0 0 0 0 0 0 0 0 0 0 0l86 0c50 0 90-40 90-90l0-46c-3 5-6 11-8 17-6 12-10 25-12 39-6 35-37 60-72 60l-213 0c-6 0-13-1-19-3-12-3-23-10-32-21-8-9-13-21-16-34-3-20-10-39-20-57z m365-219c-45-20-107-31-169-31-62 0-124 11-169 31-42 19-67 44-67 69 0 10 4 20 11 29l28 37 0 1c21 27 35 58 41 92 2 9 6 18 12 25 6 7 13 12 21 14 5 1 9 2 14 2l213 0c26 0 48-18 52-43 3-16 7-30 13-44 7-14 14-28 24-40l32-44c7-9 11-19 11-29 0-25-25-50-67-69z"/>
<glyph glyph-name="025-credit-card" unicode="&#87;" d="M137 273l196 0 0-17-196 0z m59 34l162 0 0-17-162 0z m8 74c-2 7-7 12-13 15l-16 8c-4 2-5 6-4 10 2 3 4 4 7 4l2 0c4 0 8-3 8-7l0-1 17 0 0 1c0 10-7 20-17 23l0 10-17 0 0-10c-13-4-20-18-16-30 2-7 6-12 12-15l17-8c3-2 5-6 3-10-1-3-4-4-7-4l-2 0c-4 0-7 3-7 7l0 1-17 0 0-1c0-10 7-20 17-23l0-10 17 0 0 10c13 4 20 18 16 30z m137 63l17 0 0-17-17 0z m-94-86l111 0 0-17-111 0z m0 35l111 0 0-18-111 0z m60 51l17 0 0-17-17 0z m-145-137l17 0 0-17-17 0z m341 94l-42 0 0 68c0 19-15 34-34 34l-308 0c-18 0-34-15-34-34l0-239-76 0c-5 0-9-3-9-8l0-205c0-5 4-8 9-8l315 0c5 0 9 3 9 8l0 14 17 17 19-20c4-3 9-3 13 0l25 26c2 1 3 3 3 6l0 68 68 0c19 0 34 15 34 34l0 231c0 4-4 8-9 8z m-187-375l-299 0 0 102 299 0z m0 119l-299 0 0 26 299 0z m0 43l-299 0 0 25 299 0z m77 281l0-406-18-17-19 20c-3 3-9 3-12 0l-11-11 0 167c0 5-4 8-9 8l-222 0 0 239c0 10 8 17 17 17l278 0c-3-5-4-11-4-17z m17-324l0 324c0 10 7 17 17 17 9 0 17-7 17-17l0-307c0-6 1-12 4-17z m85 17c0-9-8-17-17-17-10 0-17 8-17 17l0 222 34 0z m-290-60l17 0 0-17-17 0z m34 0l17 0 0-17-17 0z m34 0l17 0 0-17-17 0z"/>
<glyph glyph-name="025-economy" unicode="&#88;" d="M276 289c-6 0-10-4-10-10 0-6 4-10 10-10 6 0 10 4 10 10 0 6-4 10-10 10z m64 63c-3 42-20 80-50 110-32 32-74 50-119 50 0 0 0 0 0 0 0 0 0 0 0 0 0 0 0 0 0 0 0 0 0 0 0 0 0 0 0 0 0 0 0 0 0 0 0 0 0 0 0 0 0 0 0 0-1 0-1 0 0 0-1 0-1 0 0 0 0 0 0 0 0 0 0 0 0 0 0 0 0 0 0 0 0 0 0 0 0 0 0 0 0 0 0 0 0 0 0 0 0 0 0 0 0 0 0 0-45 0-87-18-119-50-32-32-50-74-50-119 0 0 0 0 0 0 0 0 0 0 0 0 0 0 0 0 0 0 0 0 0 0 0 0 0 0 0-1 0-1 0-45 18-88 50-120 30-30 68-47 110-50 2-92 83-172 176-172 94 0 176 82 176 176 0 93-80 174-172 176z m-221 131c-12-15-22-36-29-61-25-7-46-17-61-29 15 42 48 75 90 90z m-34-84c-3-15-4-31-5-47l-58 0c6 19 29 36 63 47z m-5-67c1-16 2-32 5-47-34 11-57 28-63 47z m-16-96c-16 16-28 35-35 55 15-12 36-22 61-29 7-25 17-46 29-61-20 7-39 19-55 35z m96-42c-19 6-36 29-47 63 15-3 31-4 47-5z m0 78c-19 1-36 3-53 7-4 17-6 34-7 53l60 0z m0 80l-60 0c1 19 3 36 7 53 17 4 34 6 53 7z m0 80c-16-1-32-2-47-5 11 34 28 57 47 63z m151-39c-15 12-36 22-61 29-7 25-17 46-29 61 42-15 75-48 90-90z m7-41l-58 0c-1 16-2 32-5 47 34-11 57-28 63-47z m-138 138c19-6 36-29 47-63-15 3-31 4-47 5z m0-78c19-1 36-3 53-7 4-17 6-34 7-53l-60 0z m0-80l60 0c0-4 0-7-1-11-9-6-18-14-26-22-8-8-16-17-22-26-4-1-7-1-11-1z m156-312c-83 0-156 73-156 156 0 2 0 4 0 6 3 78 72 147 150 150 0 0 0 0 0 0 2 0 4 0 6 0 83 0 156-73 156-156 0-83-73-156-156-156z m93 249c-25 26-59 40-93 40-8 0-16-1-23-2-6-1-9-6-8-12 1-5 6-9 11-8 7 1 13 2 20 2 60 0 113-53 113-113 0-60-53-113-113-113-60 0-113 53-113 113 0 22 9 47 24 68 3 4 2 10-2 14-4 3-11 2-14-2-18-24-28-54-28-80 0-34 14-68 40-93 25-26 59-40 93-40 34 0 68 14 93 40 26 25 40 59 40 93 0 34-14 68-40 93z m-73-83l-10 0 0 40 10 0c6 0 10-4 10-10 0-6 4-10 10-10 6 0 10 4 10 10 0 17-13 30-30 30l-10 0 0 10c0 6-4 10-10 10-6 0-10-4-10-10l0-10-10 0c-17 0-30-13-30-30l0-20c0-17 13-30 30-30l10 0 0-40-10 0c-6 0-10 4-10 10 0 6-4 10-10 10-6 0-10-4-10-10 0-17 13-30 30-30l10 0 0-10c0-6 4-10 10-10 6 0 10 4 10 10l0 10 10 0c17 0 30 13 30 30l0 20c0 17-13 30-30 30z m-30 0l-10 0c-6 0-10 4-10 10l0 20c0 6 4 10 10 10l10 0z m40-50c0-6-4-10-10-10l-10 0 0 40 10 0c6 0 10-4 10-10z m-10 350l-20 0c-6 0-10-4-10-10 0-6 4-10 10-10l20 0c6 0 10 4 10 10 0 6-4 10-10 10z m60 0l-20 0c-6 0-10-4-10-10 0-6 4-10 10-10l20 0c6 0 10 4 10 10 0 6-4 10-10 10z m60-120c-6 0-10-4-10-10l0-20c0-6 4-10 10-10 6 0 10 4 10 10l0 20c0 6-4 10-10 10z m0 60c-6 0-10-4-10-10l0-20c0-6 4-10 10-10 6 0 10 4 10 10l0 20c0 6-4 10-10 10z m-20 60c-6 0-10-4-10-10 0-6 4-10 10-10 6 0 10-4 10-10 0-6 4-10 10-10 6 0 10 4 10 10 0 17-13 30-30 30z m-280-440l-20 0c-6 0-10-4-10-10 0-6 4-10 10-10l20 0c6 0 10 4 10 10 0 6-4 10-10 10z m-60 0l-20 0c-6 0-10-4-10-10 0-6 4-10 10-10l20 0c6 0 10 4 10 10 0 6-4 10-10 10z m-80 140c-6 0-10-4-10-10l0-20c0-6 4-10 10-10 6 0 10 4 10 10l0 20c0 6-4 10-10 10z m0-60c-6 0-10-4-10-10l0-20c0-6 4-10 10-10 6 0 10 4 10 10l0 20c0 6-4 10-10 10z m20-80c-6 0-10 4-10 10 0 6-4 10-10 10-6 0-10-4-10-10 0-17 13-30 30-30 6 0 10 4 10 10 0 6-4 10-10 10z"/>
<glyph glyph-name="026-coin" unicode="&#89;" d="M162 499l-119 0c-5 0-9-4-9-8l0-34-8 0c-5 0-9-4-9-9l0-34-8 0c-5 0-9-4-9-9l0-384c0-4 4-8 9-8l119 0c5 0 9 4 9 8l0 376 8 0c5 0 9 4 9 8l0 34 8 0c5 0 9 4 9 9l0 43c0 4-4 8-9 8z m-43-469l-102 0 0 25 102 0z m0 43l-102 0 0 25 102 0z m0 42l-102 0 0 26 102 0z m0 43l-102 0 0 25 102 0z m0 43l-102 0 0 25 102 0z m0 42l-102 0 0 26 102 0z m0 43l-102 0 0 25 102 0z m0 43l-102 0 0 25 102 0z m0 42l-102 0 0 26 102 0z m18 43l-103 0 0 25 103 0z m17 43l-103 0 0 25 103 0z m237-310c-2 6-6 11-12 14l-17 9c-3 1-5 6-3 9 1 3 4 4 7 4l2 0c4 0 7-3 7-7l0-1 18 0 0 1c-1 11-7 20-18 23l0 10-17 0 0-10c-12-4-20-17-16-30 2-6 7-12 13-15l16-8c4-2 5-6 4-10-2-2-4-4-7-4l-2 0c-4 0-8 4-8 8l0 1-17 0 0-1c0-11 7-20 17-24l0-9 17 0 0 9c13 4 20 18 16 31z m36 143c-19 9-39 13-60 13-21 0-41-5-60-13l0 21 9 0c4 0 8 4 8 9l0 34 17 0c5 0 9 4 9 9l0 42c0 5-4 9-9 9l-8 0 0 25 17 0c5 0 8 4 8 9l0 43c0 4-3 8-8 8l-128 0c-5 0-9-4-9-8l0-34-17 0c-4 0-8-4-8-9l0-43c0-4 4-8 8-8l9 0 0-26-17 0c-5 0-9-4-9-8l0-34-8 0c-5 0-9-4-9-9l0-299c0-4 4-8 9-8l128 0c4 0 8 4 8 8l0 5c73-33 159-1 192 72 33 73 1 159-72 192z m-94 81l-111 0 0 26 111 0z m-103 111l111 0 0-25-111 0z m-25-43l111 0 0-25-111 0z m-9-85l111 0 0-25-111 0z m-17-43l111 0 0-25-111 0z m0-42l95 0c-9-8-17-16-24-26l-71 0z m0-43l60 0c-4-8-8-17-11-25l-49 0z m0-43l45 0c-1-8-2-17-2-25l-43 0z m0-42l44 0c1-9 3-17 5-26l-49 0z m0-43l56 0c4-9 9-17 15-25l-71 0z m111-68l-111 0 0 25 85 0c8-7 17-14 26-20z m77 0c-71 0-128 57-128 128 0 71 57 128 128 128 71 0 128-57 128-128 0-71-57-128-128-128z m119 316l0 17-17 0 0-17-17 0 0-17 17 0 0-18 17 0 0 18 17 0 0 17z m-42 119l0 17-17 0 0-17-17 0 0-17 17 0 0-17 17 0 0 17 17 0 0 17z m-77-196c-61 0-111-50-111-111 0-61 50-111 111-111 61 0 111 50 111 111 0 61-50 111-111 111z m0-205c-52 0-94 42-94 94 0 52 42 94 94 94 52 0 94-42 94-94 0-52-42-94-94-94z m-60 102l17 0 0-17-17 0z m103 0l17 0 0-17-17 0z"/>
<glyph glyph-name="026-investment" unicode="&#90;" d="M256 366c-6 0-10-4-10-10 0-6 4-10 10-10 6 0 10 4 10 10 0 6-4 10-10 10z m120-166c-40 0-70-17-70-40l0-120c0-23 30-40 70-40 40 0 70 17 70 40l0 120c0 23-30 40-70 40z m50-160c0-8-19-20-50-20-31 0-50 12-50 20l0 11c13-7 30-11 50-11 20 0 37 4 50 11z m0 40c0-8-19-20-50-20-31 0-50 12-50 20l0 11c13-7 30-11 50-11 20 0 37 4 50 11z m0 40c0-8-19-20-50-20-31 0-50 12-50 20l0 11c13-7 30-11 50-11 20 0 37 4 50 11z m-50 20c-31 0-50 12-50 20 0 8 19 20 50 20 31 0 50-12 50-20 0-8-19-20-50-20z m-303 20c-36 0-73-15-73-40l0-80c0-25 37-40 73-40 36 0 73 15 73 40l0 80c0 25-37 40-73 40z m53-120c0-8-23-20-53-20-30 0-53 12-53 20l0 12c14-8 34-12 53-12 19 0 39 4 53 12z m0 40c0-8-23-20-53-20-30 0-53 12-53 20l0 12c14-8 34-12 53-12 19 0 39 4 53 12z m-53 20c-30 0-53 12-53 20 0 8 23 20 53 20 30 0 53-12 53-20 0-8-23-20-53-20z m439 150c-3 64-32 124-81 169-46 43-104 67-165 70l0 13c0 6-4 10-10 10-6 0-10-4-10-10l0-13c-61-3-119-27-165-70-49-45-77-105-81-169 0-5 4-10 9-11 5 0 10 3 11 8 2 8 23 19 53 19 30 0 50-12 50-20 0-5 4-10 10-10 0 0 0 0 0 0 0 0 0 0 0 0 0 0 0 0 0 0 0 0 0 0 0 0 5 0 10 4 10 10 0 0 0 1 0 1 2 8 23 19 53 19 31 0 50-12 50-20l0-196c0-17-13-30-30-30-8 0-16 3-21 9-6 5-9 13-9 21l0 20c0 6-4 10-10 10-6 0-10-4-10-10l0-20c0-13 5-26 15-35 9-10 22-15 35-15 28 0 50 22 50 50l0 196c0 8 19 20 50 20 30 0 52-11 53-19 0 0 0-1 0-1 0-6 5-10 10-10 0 0 0 0 0 0 0 0 0 0 0 0 0 0 0 0 0 0 0 0 0 0 0 0 0 0 0 0 1 0 5 0 9 5 9 10 0 8 20 20 50 20 30 0 52-11 53-19 1-5 6-8 11-8 6 1 9 6 9 11z m-388 24c-12 7-30 12-51 12-16 0-33-3-46-8-1-1-2-2-4-2 16 89 85 161 172 185-12-12-22-27-32-45-21-39-34-89-39-142z m192 12c-20 0-37-4-50-11l0 41c0 6-4 10-10 10-6 0-10-4-10-10l0-41c-13 7-30 11-50 11-18 0-37-4-51-11 8 101 51 183 101 193l0-74c0-5 4-10 10-10 6 0 10 5 10 10l0 74c50-10 93-92 102-193-15 7-34 11-52 11z m169-8c-13 5-29 8-46 8-20 0-39-5-51-12-4 53-18 103-39 142-9 18-20 33-32 45 87-24 156-96 172-185-1 0-3 1-4 2z"/>
<glyph glyph-name="027-cheque" unicode="&#48;" d="M459 154l-335 0c-1 0-3 0-3 0l0 0-71-27c-5-1-7-6-5-11 1-2 2-4 5-5l71-27 0 0c0 0 2 0 3 0l291 0c0-10-8-18-18-18l-115 0 0-17 115 0c20 0 36 15 36 35l26 0c5 0 9 4 9 9l0 53c0 5-4 8-9 8z m-344-49l-37 14 37 14z m265-3l-248 0 0 35 248 0z m35 0l-18 0 0 35 18 0z m35 0l-17 0 0 35 17 0z m53 361l-494 0c-5 0-9-4-9-8l0-265c0-5 4-9 9-9l494 0c5 0 9 4 9 9l0 265c0 4-4 8-9 8z m-9-264l-476 0 0 247 476 0z m-39 69l-40-20 0 12c0 5-4 9-9 9-1 0-3 0-4-1l-40-20 0 12c0 5-4 9-9 9-1 0-3 0-4-1l-53-26 8-16 40 20 0-12c0-5 4-9 9-9 1 0 3 0 4 1l40 20 0-12c0-5 4-9 9-9 1 0 3 0 4 1l53 26z m-402 116l124 0 0-18-124 0z m53 35l71 0 0-17-71 0z m26-132l124 0 0-18-124 0z m0-35l124 0 0-18-124 0z m53 70l71 0 0-17-71 0z m274 97l-229 0c-5 0-9-4-9-9l0-35c0-5 4-9 9-9l229 0c5 0 9 4 9 9l0 35c0 5-4 9-9 9z m-9-35l-212 0 0 18 212 0z m-354-117c-2 6-7 12-13 15l-17 8c-4 2-5 7-3 10 1 3 3 5 6 5l3 0c4 0 7-4 7-8l0-1 18 0 0 1c0 11-7 21-18 24l0 10-17 0 0-10c-13-4-21-18-17-32 2-6 7-11 13-15l17-8c4-2 6-7 4-10-2-3-4-4-7-4l-3 0c-4 0-7 3-7 7l0 1-18 0 0-1c0-11 7-21 18-24l0-10 17 0 0 10c14 4 21 18 17 32z m-25 152l17 0 0-17-17 0z m79-97l18 0 0-17-18 0z m159 0l18 0 0-17-18 0z m35 0l18 0 0-17-18 0z m36 0l17 0 0-17-17 0z m35 0l18 0 0-17-18 0z m35 0l18 0 0-17-18 0z"/>
<glyph glyph-name="027-laptop" unicode="&#49;" d="M359 116c-6 0-10-4-10-10 0-6 4-10 10-10 6 0 10 4 10 10 0 6-4 10-10 10z m-269 0c-6 0-10-4-10-10 0-6 4-10 10-10 6 0 10 4 10 10 0 6-4 10-10 10z m-40 0c-6 0-10-4-10-10 0-6 4-10 10-10 6 0 10 4 10 10 0 6-4 10-10 10z m452 40l-10 0 0 270c0 17-13 30-30 30l-412 0c-17 0-30-13-30-30l0-270-10 0c-6 0-10-4-10-10l0-40c0-28 22-50 50-50l412 0c28 0 50 22 50 50l0 40c0 6-4 10-10 10z m-462 270c0 6 4 10 10 10l412 0c6 0 10-4 10-10l0-270-153 0c-6 0-10-4-10-10l0-10-106 0 0 10c0 6-4 10-10 10l-153 0z m452-320c0-17-13-30-30-30l-412 0c-17 0-30 13-30 30l0 30 163 0 0-10c0-6 4-10 10-10l126 0c6 0 10 4 10 10l0 10 163 0z m-30 10l-63 0c-6 0-10-4-10-10 0-6 4-10 10-10l63 0c6 0 10 4 10 10 0 6-4 10-10 10z m-20 300l-372 0c-6 0-10-4-10-10l0-220c0-6 4-10 10-10l372 0c6 0 10 4 10 10l0 220c0 6-4 10-10 10z m-10-220l-352 0 0 200 352 0z m-33 40l-10 0 0 130c0 6-4 10-10 10l-40 0c-6 0-10-4-10-10l0-130-20 0 0 90c0 6-4 10-10 10l-43 0c-6 0-10-4-10-10l0-90-23 0 0 50c0 6-4 10-10 10l-40 0c-6 0-10-4-10-10l0-50-10 0c-6 0-10-4-10-10 0-6 4-10 10-10l246 0c6 0 10 4 10 10 0 6-4 10-10 10z m-196 0l-20 0 0 40 20 0z m86 0l-23 0 0 80 23 0z m80 0l-20 0 0 120 20 0z m-176 140l-83 0c-6 0-10-4-10-10 0-6 4-10 10-10l83 0c6 0 10 4 10 10 0 6-4 10-10 10z m0-40l-83 0c-6 0-10-4-10-10 0-6 4-10 10-10l83 0c6 0 10 4 10 10 0 6-4 10-10 10z"/>
<glyph glyph-name="028-cash" unicode="&#50;" d="M205 162l34 0 0-17-34 0z m-51 0l34 0 0-17-34 0z m-52 0l35 0 0-17-35 0z m103-34l34 0 0-17-34 0z m-51 0l34 0 0-17-34 0z m-52 0l35 0 0-17-35 0z m103-34l34 0 0-17-34 0z m-51 0l34 0 0-17-34 0z m-52 0l35 0 0-17-35 0z m299 307l-290 0c-5 0-9-4-9-8l0-154c0-5 4-9 9-9l290 0c5 0 9 4 9 9l0 154c0 4-4 8-9 8z m-247-154l-35 0 0 35 35 0z m0 52l-35 0 0 34 35 0z m0 51l-35 0 0 34 35 0z m187-103l-170 0 0 137 170 0z m52 0l-35 0 0 35 35 0z m0 52l-35 0 0 34 35 0z m0 51l-35 0 0 34 35 0z m102-306c0 0 0 1 0 1l-43 152 0 306c0 5-4 9-8 9l-376 0c-4 0-8-4-8-9l0-306-43-152c0 0 0-1 0-1 0 0 0-1 0-1l0-34c0-5 4-9 9-9l460 0c5 0 9 4 9 9l0 34c0 0 0 1 0 1z m-418 383l307 0 0 17-307 0 0 51 358 0 0-290-358 0z m-2-239l362 0 38-137-438 0z m403-171l-444 0 0 17 444 0z m-77 145l-128 0c-5 0-8-4-8-8l0-35c0-4 3-8 8-8l128 0c5 0 9 4 9 8l0 35c0 4-4 8-9 8z m-8-34l-111 0 0 17 111 0z m-128-34l145 0 0-17-145 0z m0 384l17 0 0-17-17 0z m-35 0l17 0 0-17-17 0z m51-173c-2 6-7 11-13 14l-16 9c-4 1-6 6-4 9 1 3 4 4 7 4l2 0c4 0 8-3 8-7l0-1 17 0 0 1c0 11-7 20-17 23l0 10-18 0 0-10c-12-4-19-17-15-30 1-7 6-12 12-15l16-8c4-2 6-6 4-10-1-2-4-4-7-4l-2 0c-4 0-8 3-8 7l0 2-17 0 0-2c0-10 7-20 17-23l0-9 18 0 0 9c12 4 19 18 16 31z m120 139l17 0 0-17-17 0z"/>
<glyph glyph-name="028-piggy-bank" unicode="&#51;" d="M376 204c-6 0-10-5-10-11 0-5 4-10 10-10 6 0 11 5 11 10 0 6-5 11-11 11z m-146 0c-6 0-11 4-11 10 0 6 5 11 11 11 4 0 7-2 11-6 4-4 11-4 15 0 4 5 4 11 0 15-6 5-11 8-16 10l0 12c0 6-4 10-10 10-6 0-11-4-11-10l0-12c-12-5-20-16-20-30 0-17 14-31 31-31 6 0 10-5 10-11 0-5-4-10-10-10-5 0-9 3-14 8-3 4-10 5-14 1-5-4-5-10-2-15 6-6 12-11 19-13l0-12c0-6 5-11 11-11 6 0 10 5 10 11l0 12c12 4 21 16 21 29 0 18-14 32-31 32z m-82 53c-6 6-14 9-23 9-17 0-31-14-31-31 0-6 5-10 10-10 6 0 11 4 11 10 0 6 5 11 10 11 3 0 6-2 8-4 2-1 3-4 3-7 0-6 5-10 10-10 6 0 11 4 11 10 0 8-4 16-9 22z m234-23c-7 24-24 46-47 62-4 4-11 3-14-2-4-5-3-11 2-14 20-15 33-32 39-52 1-5 6-8 10-8 1 0 2 1 3 1 6 2 9 7 7 13z m130 106c0 5-5 10-10 10-6 0-11-5-11-10 0-9-2-17-6-24-5 8-15 13-25 13-18 0-32-14-32-31 0-17 14-32 32-32 3 0 6 1 9 2-1-9-5-17-11-24-8-10-19-17-31-19-4 28-16 53-35 76-21 24-48 43-80 55 8 14 12 30 12 46 0 52-42 94-94 94-52 0-94-42-94-94 0-16 4-32 12-46-7-2-13-5-20-9-10 14-25 23-42 26-19 4-39 0-55-11-5-3-6-9-3-14l35-53c0 0 0 0 0 0-9-12-16-25-22-39l-31 0c-5 0-10-5-10-10l0-84c0-6 5-10 10-10l31 0c11-27 29-51 53-70l0-56c0-6 5-10 10-10l63 0c6 0 11 4 11 10l0 16c17-3 34-5 52-5 18 0 35 2 52 5l0-16c0-6 5-10 11-10l62 0c6 0 11 4 11 10l0 56c40 31 62 75 62 122 0 0 0 0 0 1 18 2 35 11 47 26 13 16 18 36 15 57 14 13 22 32 22 52z m-282 135c40 0 73-32 73-73 0-16-5-32-16-45-14-18-35-28-57-28-23 0-44 10-58 28-10 13-15 29-15 45 0 41 33 73 73 73z m119-380c-3-2-4-5-4-8l0-50-42 0 0 19c0 3-2 6-4 8-3 2-6 3-9 2-20-6-40-9-60-9-21 0-41 3-60 9-3 1-6 0-9-2-3-2-4-5-4-8l0-19-42 0 0 50c0 3-2 6-4 8-26 19-44 43-53 70-1 5-5 7-9 7l-28 0 0 63 28 0c4 0 8 3 9 7 6 16 14 32 26 45 3 4 4 9 1 13-3 4-4 6-4 6l-29 44c9 4 19 5 30 3 13-3 25-11 33-23 0 0 1-1 1-2 3-4 9-6 14-3 10 5 20 10 31 14 6-7 13-13 20-17-1 0-2-1-3-1-5-2-8-8-7-13 2-5 6-7 10-7 1 0 2 0 3 0 15 5 30 7 46 7 15 0 31-2 45-7 6-2 11 1 13 7 2 5-1 11-7 13 0 0-1 1-2 1 7 4 14 10 20 17 65-23 109-77 109-135 0-41-22-81-59-109z m121 200c0 0 0-1 0-1 0 0 0 0 0 0-2-4-6-7-10-7-6 0-11 5-11 11 0 6 5 10 11 10 6 0 10-4 10-10 0-1 0-2 0-3z m-240 160c-29 0-52-24-52-53 0-29 23-52 52-52 29 0 52 23 52 52 0 29-23 53-52 53z m0-84c-17 0-31 14-31 31 0 18 14 32 31 32 17 0 31-14 31-32 0-17-14-31-31-31z"/>
<glyph glyph-name="029-card" unicode="&#52;" d="M478 512l-444 0c-19 0-34-15-34-34l0-273c0-19 15-34 34-34l26 0 0-26c0-5 4-8 8-8l51 0 0-128c0-5 4-9 9-9l256 0c5 0 9 4 9 9l0 128 51 0c4 0 8 3 8 8l0 26 26 0c19 0 34 15 34 34l0 273c0 19-15 34-34 34z m-68-17l58 0c-1-20-5-40-11-60l-47 0z m0-77l42 0c-11-27-26-45-42-50z m-17 77l0-60-48 0c-6 20-10 40-11 60z m0-77l0-50c-17 5-32 23-42 50z m-36-45c-27 8-52 24-71 45l46 0c6-16 14-31 25-45z m-40 122c1-20 4-40 10-60l-54 0c-12 18-20 39-23 60z m58-478l-238 0 0 154 17 0 0-94c0-5 3-9 8-9l26 0 0-25c0-5 4-9 8-9l120 0c4 0 8 4 8 9l0 25 26 0c5 0 8 4 8 9l0 94 17 0z m-119 102c19 0 34 16 34 35 0 6-2 11-5 17l56 0 0-86-25 0c-5 0-9-3-9-8l0-26-102 0 0 26c0 5-4 8-9 8l-25 0 0 86 56 0c-3-6-5-11-5-17 0-19 15-35 34-35z m-17 35c0 9 8 17 17 17 9 0 17-8 17-17 0-10-8-17-17-17-9 0-17 7-17 17z m196 0l-42 0 0 17 17 0 0 17-308 0 0-17 17 0 0-17-42 0 0 51 358 0z m60 51c0-10-8-17-17-17l-26 0 0 25c0 5-4 9-8 9l-376 0c-4 0-8-4-8-9l0-25-26 0c-9 0-17 7-17 17l0 273c0 9 8 17 17 17l198 0c13-84 85-145 169-145 33 0 66 10 94 28z m0 194c-15-11-32-20-50-25 11 13 19 28 25 44l25 0z m0 36l-20 0c5 19 9 39 10 58 6-3 10-9 10-15z m-341 34l-103 0c-5 0-8-3-8-8l0-68c0-5 3-9 8-9l103 0c4 0 8 4 8 9l0 68c0 5-4 8-8 8z m-94-17l17 0 0-17-17 0z m85-51l-17 0 0 17 17 0z m0 34l-26 0c-4 0-8-4-8-8l0-26-51 0 0 17 25 0c5 0 9 4 9 9l0 25 51 0z m-102-85l17 0 0-17-17 0z m111-299l17 0 0-17-17 0z m187 0l17 0 0-17-17 0z m-298 248l17 0 0-17-17 0z m34 51l17 0 0-17-17 0z m34 0l17 0 0-17-17 0z m34 0l17 0 0-17-17 0z m34 0l17 0 0-17-17 0z m34 0l17 0 0-17-17 0z m34 0l18 0 0-17-18 0z m35 0l17 0 0-17-17 0z m171-34c-15 11-37 11-52 0-7 5-16 8-26 8-23 0-42-19-42-42 0-24 19-43 42-43 10 0 19 3 26 9 19-15 46-11 60 8 14 18 11 45-8 60z m-53-40c0 0 0 0 0 0-1-4-3-8-5-11l0 0c-10-11-26-12-36-3-11 10-12 26-3 37 5 5 12 8 19 8 8 0 15-3 20-9l0 0c2-3 4-6 5-10 0-1 0-1 0-1 1-4 1-7 0-11z m27-20c-5 0-10 2-15 4 1 1 1 2 1 2 2 3 3 7 4 10 0 1 0 1 0 2 1 5 1 10 0 15 0 1 0 2 0 2-1 4-2 7-4 10 0 0 0 1-1 2 5 3 10 4 15 4 14 0 25-11 25-25 0-15-11-26-25-26z m-350 43l77 0 0-17-77 0z m-34-34l111 0 0-18-111 0z m145 34l17 0 0-17-17 0z m34 0l77 0 0-17-77 0z m-34-34l111 0 0-18-111 0z m179 25l17 0 0-17-17 0z"/>
<glyph glyph-name="029-mortgage" unicode="&#53;" d="M53 201c-6 0-10-4-10-10 0-5 4-10 10-10 5 0 10 5 10 10 0 6-5 10-10 10z m442-33c-10 7-23 9-35 5 0 0 0 0 0 0l-95-38c1 2 1 4 1 6 0 22-18 40-40 40l-65 0c-2 0-3 0-5 1l-53 30c-10 6-22 9-34 9l-66 0 0 10c0 6-5 10-10 10l-83 0c-6 0-10-4-10-10l0-180c0-5 4-10 10-10l83 0c5 0 10 5 10 10l0 10 7 0 96-38c18-8 38-12 58-12 23 0 44 5 65 14 0 0 0 0 0 0l159 76c14 6 24 20 24 35 0 13-6 25-17 32z m-412-107l-63 0 0 160 63 0z m397 58c0 0 0 0-1 0l-159-76c-17-8-36-12-56-12-17 0-34 3-51 10l-97 39c-1 1-2 1-4 1l-9 0 0 120 66 0c9 0 17-2 25-6l52-30c5-3 10-4 15-4l65 0c11 0 20-9 20-20 0-7-4-13-10-17l0 0c-1 0-1-1-2-1-2-1-5-2-8-2l-102 0c-16 0-30-13-30-30 0-5 5-10 10-10 6 0 10 5 10 10 0 6 5 10 10 10l102 0c6 0 13 2 19 5l122 48c6 2 12 1 17-2 5-4 8-9 8-16 0-7-5-14-12-17z m-427 42c-6 0-10-4-10-10l0-60c0-5 4-10 10-10 5 0 10 5 10 10l0 60c0 6-5 10-10 10z m448 238c0 0 0 0 0 0l-118 95c-11 9-27 9-38 0l-119-96c0 0 0 0 0 0-6-5-10-13-10-21-1-7 1-15 7-21 5-7 14-11 23-11 2 0 5 0 8 1l0-135c0-5 4-10 10-10l200 0c5 0 10 5 10 10l0 136c11-3 23 0 31 9 11 13 9 32-4 43z m-117-178l-40 0 0 80 40 0z m70 0l-50 0 0 90c0 5-5 10-10 10l-60 0c-6 0-10-5-10-10l0-90-50 0 0 138 90 73 90-72z m36 148c-4-4-10-5-14-1 0 0 0 0-1 0l-105 85c-4 3-9 3-12 0l-106-86c0 0 0 0 0 0-2-1-4-2-6-2-3 0-6 1-8 3-2 2-3 5-2 8 0 2 1 5 3 6l118 96c0 0 0 0 0 1 4 3 9 3 13 0 0-1 0-1 0-1l118-95c5-3 5-10 2-14z m-126 32c-17 0-30-14-30-30 0-17 13-30 30-30 16 0 30 13 30 30 0 16-14 30-30 30z m0-40c-6 0-10 4-10 10 0 5 4 10 10 10 5 0 10-5 10-10 0-6-5-10-10-10z"/>
<glyph glyph-name="030-business" unicode="&#54;" d="M469 112c25 4 43 25 43 50l0 51c0 5-4 9-9 9l-51 0c0 14 12 25 26 25 19 0 34 16 34 35l0 85-17 0 0-85c0-10-8-17-17-17-24 0-43-20-43-43l-145 0c0 14 12 25 26 25 4 0 8 4 8 9l0 9c0 18 15 34 34 34l9 0c28 0 51 23 51 51l0 17-17 0 0-17c0-19-15-34-34-34l0 111 42 0c5 0 9 3 9 8l0 43c0 19-15 34-34 34l-316 0c-19 0-34-15-34-34l0-350-25 0c-5 0-9-4-9-8l0-18c0-18 15-34 34-34l239 0 0 1c5-7 11-13 17-18l-60 0c-4 0-8-4-8-8 0-2 0-3 1-4l17-34c1-3 4-5 7-5l239 0c4 0 6 2 8 5l17 34c2 4 0 9-4 11-1 1-2 1-4 1l-68 0c19 15 32 37 34 61z m0 93l26 0 0-43c0-15-11-29-26-33z m-102 273c0 9 7 17 17 17 9 0 17-8 17-17l0-34-34 0z m-333-393c-9 0-17 8-17 17l0 9 239 0c1-9 4-17 7-26z m230 137c-4 0-8-4-8-9l0-85-205 0 0 350c0 9 8 17 17 17l287 0c-4-5-5-11-5-17l0-163c-25-4-43-26-43-50l0-1c-20-4-34-22-34-42z m226-188l-9-17-228 0-9 17z m-106 17l-43 0c-37 0-68 31-68 69l0 85 179 0 0-85c0-38-30-69-68-69z m-43 188l17 0c0 14 12 26 26 26l0 17c-24 0-43-20-43-43z m103 94l0-26c0-14-12-25-26-25l0-17c24 0 43 19 43 42l0 26z m-128 128l-154 0c-5 0-8-4-8-9l0-34c0-5 3-8 8-8l154 0c4 0 8 3 8 8l0 34c0 5-4 9-8 9z m-9-34l-136 0 0 17 136 0z m-180-20c-2 6-7 12-12 15l-17 8c-4 2-5 6-3 10 1 2 3 4 6 4l3 0c4 0 7-4 7-8l0-1 17 0 0 1c0 11-7 20-17 24l0 9-17 0 0-9c-13-4-20-18-16-31 2-6 6-11 12-14l17-9c3-2 5-6 3-9-1-3-4-5-6-5l-3 0c-4 0-7 4-7 8l0 1-17 0 0-1c0-11 7-20 17-23l0-10 17 0 0 10c13 4 20 17 16 30z m-50-57l247 0 0-17-247 0z m0-85l153 0 0-18-153 0z m0-35l153 0 0-17-153 0z m0-34l119 0 0-17-119 0z m51 103l102 0 0-17-102 0z m60 93l136 0 0-17-136 0z m162-307c-24 0-43 19-43 43l0 9-17 0 0-9c0-33 27-60 60-60l8 0 0 17z m-256 214l17 0 0-17-17 0z m60 93l17 0 0-17-17 0z m247 9l17 0 0-17-17 0z m43-34l17 0 0-17-17 0z m51 34l17 0 0-17-17 0z m-205-230l17 0 0-17-17 0z"/>
<glyph glyph-name="030-folder" unicode="&#55;" d="M73 246c-6 0-10-4-10-10 0-6 4-10 10-10 6 0 10 4 10 10 0 6-4 10-10 10z m0 103c-6 0-10-4-10-10l0-63c0-6 4-10 10-10 6 0 10 4 10 10l0 63c0 6-4 10-10 10z m20-226l-43 0c-6 0-10-4-10-10l0-43c0-6 4-10 10-10l43 0c6 0 10 4 10 10l0 43c0 6-4 10-10 10z m-10-43l-23 0 0 23 23 0z m113 269c-6 0-10-4-10-10l0-103c0-6 4-10 10-10 6 0 10 4 10 10l0 103c0 6-4 10-10 10z m20-226l-43 0c-6 0-10-4-10-10l0-43c0-6 4-10 10-10l43 0c6 0 10 4 10 10l0 43c0 6-4 10-10 10z m-10-43l-23 0 0 23 23 0z m110 269c-6 0-10-4-10-10l0-103c0-6 4-10 10-10 6 0 10 4 10 10l0 103c0 6-4 10-10 10z m23-226l-43 0c-6 0-10-4-10-10l0-43c0-6 4-10 10-10l43 0c6 0 10 4 10 10l0 43c0 6-4 10-10 10z m-10-43l-23 0 0 23 23 0z m110 269c-6 0-10-4-10-10l0-103c0-6 4-10 10-10 6 0 10 4 10 10l0 103c0 6-4 10-10 10z m43 163l-83 0c-8 0-15-3-20-8-5 5-12 8-20 8l-83 0c-8 0-15-3-20-8-5 5-12 8-20 8l-83 0c-8 0-15-3-20-8-5 5-12 8-20 8l-83 0c-17 0-30-13-30-30l0-452c0-17 13-30 30-30l83 0c8 0 15 3 20 8 5-5 12-8 20-8l83 0c8 0 15 3 20 8 5-5 12-8 20-8l83 0c8 0 15 3 20 8 5-5 12-8 20-8l83 0c17 0 30 13 30 30l0 452c0 17-13 30-30 30z m-359-482c0-6-4-10-10-10l-83 0c-6 0-10 4-10 10l0 136 103 0z m0 156l-103 0 0 296c0 6 4 10 10 10l83 0c6 0 10-4 10-10z m123-156c0-6-4-10-10-10l-83 0c-6 0-10 4-10 10l0 136 103 0z m0 156l-103 0 0 296c0 6 4 10 10 10l83 0c6 0 10-4 10-10z m123-156c0-6-4-10-10-10l-83 0c-6 0-10 4-10 10l0 136 103 0z m0 156l-103 0 0 296c0 6 4 10 10 10l83 0c6 0 10-4 10-10z m123-156c0-6-4-10-10-10l-83 0c-6 0-10 4-10 10l0 136 103 0z m0 156l-103 0 0 296c0 6 4 10 10 10l83 0c6 0 10-4 10-10z m-30-63l-43 0c-6 0-10-4-10-10l0-43c0-6 4-10 10-10l43 0c6 0 10 4 10 10l0 43c0 6-4 10-10 10z m-10-43l-23 0 0 23 23 0z m10 369l-43 0c-6 0-10-4-10-10 0-6 4-10 10-10l43 0c6 0 10 4 10 10 0 6-4 10-10 10z m0-40l-43 0c-6 0-10-4-10-10 0-6 4-10 10-10l43 0c6 0 10 4 10 10 0 6-4 10-10 10z m-123 40l-43 0c-6 0-10-4-10-10 0-6 4-10 10-10l43 0c6 0 10 4 10 10 0 6-4 10-10 10z m0-40l-43 0c-6 0-10-4-10-10 0-6 4-10 10-10l43 0c6 0 10 4 10 10 0 6-4 10-10 10z m-123 40l-43 0c-6 0-10-4-10-10 0-6 4-10 10-10l43 0c6 0 10 4 10 10 0 6-4 10-10 10z m0-40l-43 0c-6 0-10-4-10-10 0-6 4-10 10-10l43 0c6 0 10 4 10 10 0 6-4 10-10 10z m-123 40l-43 0c-6 0-10-4-10-10 0-6 4-10 10-10l43 0c6 0 10 4 10 10 0 6-4 10-10 10z m0-40l-43 0c-6 0-10-4-10-10 0-6 4-10 10-10l43 0c6 0 10 4 10 10 0 6-4 10-10 10z"/>
<glyph glyph-name="031-bank" unicode="&#56;" d="M503 85l-17 0 0 9c0 11-6 20-17 24l0 174c11 3 17 13 17 24l0 8c15 0 26 12 26 26 0 14-11 25-26 25l-6 0-220 136c-2 1-6 1-8 0l-220-136-6 0c-15 0-26-11-26-25 0-14 11-26 26-26l0-8c0-11 6-21 17-24l0-174c-11-4-17-13-17-24l0-9-17 0c-5 0-9-3-9-8l0-68c0-5 4-9 9-9l494 0c5 0 9 4 9 9l0 68c0 5-4 8-9 8z m-34 231c0-5-3-9-8-9l-34 0c-5 0-9 4-9 9l0 8 51 0z m-8-214c5 0 8-3 8-8l0-9-51 0 0 9c0 5 4 8 9 8z m-26 17l0 171 17 0 0-171z m-409 222c-5 0-9 4-9 9 0 5 4 8 9 8l59 0 0 17-21 0 192 118 192-118-311 0 0-17 349 0c5 0 9-3 9-8 0-5-4-9-9-9z m170-223l0 174c10 3 17 13 17 24l0 8 86 0 0-8c0-11 7-21 17-24l0-174c-10-4-17-13-17-24l0-9-86 0 0 9c0 11-7 20-17 24z m-8-16c4 0 8-3 8-8l0-9-51 0 0 9c0 5 4 8 9 8z m-26 17l0 171 17 0 0-171z m26 188l-34 0c-5 0-9 4-9 9l0 8 51 0 0-8c0-5-4-9-8-9z m128-213c0 5 4 8 8 8l34 0c5 0 9-3 9-8l0-9-51 0z m17 25l0 171 17 0 0-171z m25 188l-34 0c-4 0-8 4-8 9l0 8 51 0 0-8c0-5-4-9-9-9z m-307 0c-5 0-8 4-8 9l0 8 51 0 0-8c0-5-4-9-9-9z m26-17l0-171-17 0 0 171z m-34-196c0 5 3 8 8 8l34 0c5 0 9-3 9-8l0-9-51 0z m68-77l-94 0 0 51 94 0z m-17 101l0 174c10 3 17 13 17 24l0 8 17 0 0-8c0-11 7-21 17-24l0-174c-10-4-17-13-17-24l0-9-17 0 0 9c0 11-7 20-17 24z m290-101l-256 0 0 17 205 0 0 17-205 0 0 17 256 0z m-17 101l0 174c10 3 17 13 17 24l0 8 17 0 0-8c0-11 7-21 17-24l0-174c-10-4-17-13-17-24l0-9-17 0 0 9c0 11-7 20-17 24z m128-101l-94 0 0 51 94 0z m-145 34l17 0 0-17-17 0z m-248 324l17 0 0-17-17 0z m154 86c-19 0-34-15-34-34 0-19 15-34 34-34 19 0 34 15 34 34 0 19-15 34-34 34z m0-51c-9 0-17 7-17 17 0 9 8 17 17 17 9 0 17-8 17-17 0-10-8-17-17-17z"/>
<glyph glyph-name="031-pie-chart" unicode="&#57;" d="M50 246c-6 0-10-4-10-10 0-6 4-10 10-10 6 0 10 4 10 10 0 6-4 10-10 10z m412 0l-216 0 0 216c0 6-4 10-10 10-31 0-61-6-91-19-27-12-53-29-75-51-22-22-39-48-51-75-13-30-19-60-19-91 0-31 6-61 19-91 12-27 29-53 51-75 22-22 48-39 75-51 30-13 60-19 91-19 13 0 27 1 40 3 53 10 102 38 138 81 38 44 58 98 58 152 0 6-4 10-10 10z m-189-223c-12-2-25-3-37-3-115 0-216 101-216 216 0 112 95 210 206 216l0-216c0-6 4-10 10-10l216 0c-5-98-82-186-179-203z m180 430c-37 38-87 59-137 59-7 0-14 0-21-1-5-1-9-5-9-10l0-205c0-6 4-10 10-10l205 0c5 0 9 4 10 9 1 7 1 14 1 21 0 50-21 100-59 137z m39-147l-186 0 0 186c3 0 7 0 10 0 94 0 176-82 176-176 0-3 0-7 0-10z m-256-246c-79 0-154 61-172 139-1 5-6 8-12 7-5-1-9-6-7-12 9-41 33-80 69-109 35-29 79-45 122-45 6 0 10 4 10 10 0 6-4 10-10 10z"/>
<glyph glyph-name="032-auction" unicode="&#33;" d="M118 338c-4 4-10 4-14 0-4-4-4-11 0-14 4-4 10-4 14 0 4 3 4 10 0 14z m135-274c5 6 7 13 7 21 0 19-16 35-35 35l-170 0c-9 0-18-4-25-10-6-7-10-16-10-25 0-8 3-15 7-21-16-8-27-25-27-44l0-10c0-6 4-10 10-10l260 0c6 0 10 4 10 10l0 10c0 19-11 36-27 44z m-209 32c3 2 7 4 11 4l170 0c8 0 15-7 15-15 0-4-2-8-4-11-3-2-7-4-11-4l-170 0c-8 0-15 7-15 15 0 4 2 8 4 11z m-24-76c0 17 13 30 30 30l180 0c17 0 30-13 30-30z m483 72c-4 5-8 10-12 14l-47 40c0 1-1 2-1 2-1 1-2 1-3 2l-28 25-131 114c5 5 8 13 8 20 0 8-3 16-9 22-2 2-5 4-8 5l12 13c4-1 7-2 11-2 10 0 20 4 28 12 7 7 12 17 12 28 0 11-5 21-12 28l-85 85c-8 8-18 12-28 12-11 0-21-4-29-12-10-10-13-25-10-38l-121-121c-3 1-6 1-10 1-11 0-21-4-28-11-16-16-16-41 0-57l85-85c7-8 18-12 28-12 10 0 20 4 28 12 11 11 14 25 10 39l13 12c1-3 3-6 5-8 6-6 14-9 22-9 7 0 15 3 20 8l140-160c0-1 0-1 1-2 0 0 0 0 1 0l41-48c1-1 2-2 3-3 12-12 27-18 43-18 2 0 5 0 8 1 19 2 35 13 45 30 10 19 9 43-2 61z m-307 394c3 4 8 6 14 6 5 0 10-2 14-6l85-85c3-3 6-9 6-14 0-5-3-10-6-14-8-8-21-8-29 0l-84 85c0 0 0 0 0 0-8 8-8 20 0 28z m-57-283c-8-7-20-7-28 0l-85 85c-8 8-8 21 0 28 4 4 9 6 14 6 5 0 10-2 14-6l85-84c8-8 8-21 0-29z m42 71l-28-28-85 85 113 113 85-85-28-28c0 0 0 0 0 0l-57-57c0 0 0 0 0 0z m36-21c0 0 0 0 0 0l-7-7c-2-2-5-3-7-3-3 0-6 1-7 3-2 2-3 4-3 7 0 2 1 5 2 7l57 57c4 3 10 3 14-1 2-1 3-4 3-7 0-2-1-5-3-7l-7-7c0 0 0 0 0 0z m21-8l29 29 123-107-45-46z m120-139l48 47 15-13-49-49z m129-65c-6-11-17-19-30-21-12-1-25 3-34 12 0 0-1 1-2 2 0 0 0 0 0 0l-36 42 51 51 42-36c0 0 0 0 0 0 3-3 6-6 8-10 7-12 8-28 1-40z m-299 367c-3 4-10 4-14 0l-42-42c-4-4-4-10 0-14 2-2 4-3 7-3 3 0 5 1 7 3l42 42c4 4 4 10 0 14z"/>
<glyph glyph-name="032-balance" unicode="&#34;" d="M110 232c-2 6-7 12-13 15l-16 8c-4 2-5 6-3 10 1 2 3 4 6 4l3 0c4 0 7-3 7-7l0-2 17 0 0 2c0 10-7 19-17 23l0 9-17 0 0-9c-13-4-20-18-16-31 2-6 6-11 12-14l17-9c3-1 5-6 3-9-1-3-4-4-6-4l-3 0c-4 0-7 3-7 7l0 1-17 0 0-1c0-11 7-20 17-23l0-10 17 0 0 10c13 4 20 17 16 30z m9 20l18 0 0-17-18 0z m-85 0l17 0 0-17-17 0z m417-20c-2 6-6 12-12 15l-17 8c-3 2-5 6-3 10 1 2 4 4 6 4l3 0c4 0 7-3 7-7l0-2 17 0 0 2c0 10-7 19-17 23l0 9-17 0 0-9c-13-4-20-18-16-31 2-6 7-11 13-14l16-9c4-1 5-6 3-9-1-3-3-4-6-4l-3 0c-4 0-7 3-7 7l0 1-17 0 0-1c0-11 7-20 17-23l0-10 17 0 0 10c13 4 20 17 16 30z m10 20l17 0 0-17-17 0z m-86 0l18 0 0-17-18 0z m131-69c-1 0-2 0-3 0l-16 0c33 34 33 88 0 121-14 14-32 22-52 24l0 111 17 0c14 0 26 12 26 26 0 14-12 26-26 26l-162 0 0-1c-14 19-40 23-59 10-3-3-7-6-9-10l0 1-162 0c-14 0-26-12-26-26 0-14 12-26 26-26l17 0 0-111c-47-5-81-46-77-93 2-19 11-38 25-52l-16 0c-5 0-9-3-9-8 0-1 0-2 0-3l18-51c1-3 4-6 8-6l119 0c4 0 7 3 8 6l17 51c2 5-1 10-5 11-1 0-2 0-3 0l-16 0c33 34 33 88-1 121-13 14-32 22-51 24l0 111 128 0 0 1c2-4 5-6 8-9l-41-333-10 0c-14 0-25-11-25-25l0-18-94 0c-14 0-26-11-26-25 0-14 12-26 26-26l392 0c14 0 26 12 26 26 0 14-12 25-26 25l-94 0 0 18c0 14-11 25-25 25l-10 0-41 333c3 3 6 5 8 9l0-1 128 0 0-111c-47-5-81-46-76-93 2-19 10-38 24-52l-16 0c-5 0-9-3-9-8 0-1 0-2 1-3l17-51c1-3 4-6 8-6l119 0c4 0 7 3 8 6l18 51c1 5-1 10-6 11z m-356-17l-11-34-107 0-12 34z m-32 137c22-12 36-35 36-60 0-25-14-48-36-60l-66 0c-33 19-45 60-26 93 18 33 59 45 92 27z m96 154l-154 0c-5 0-9 3-9 8 0 5 4 9 9 9l154 0c-1-6-1-12 0-17z m238-419c5 0 9-3 9-8 0-5-4-9-9-9l-392 0c-5 0-9 4-9 9 0 5 4 8 9 8z m-119 43c5 0 8-4 8-8l0-18-170 0 0 18c0 4 3 8 8 8z m-27 17l-100 0 41 326c6-2 12-2 18 0z m-50 341c-14 0-26 12-26 26 0 14 12 26 26 26 14 0 26-12 26-26 0-14-12-26-26-26z m42 18c1 5 1 11 0 17l154 0c5 0 9-4 9-9 0-5-4-8-9-8z m69-181c18 33 60 45 93 27 33-18 45-60 26-93-6-11-15-20-26-27l-66 0c-33 19-45 60-27 93z m113-144l-107 0-11 34 130 0z"/>
<glyph glyph-name="033-bar-chart" unicode="&#35;" d="M30 512c-6 0-10-4-10-10 0-6 4-10 10-10 6 0 10 4 10 10 0 6-4 10-10 10z m472-469l-30 0 0 379c0 6-4 10-10 10l-83 0c-6 0-10-4-10-10l0-379-40 0 0 296c0 6-4 10-10 10l-83 0c-6 0-10-4-10-10l0-296-40 0 0 216c0 6-4 10-10 10l-83 0c-6 0-10-4-10-10l0-216-43 0 0 419c0 6-4 10-10 10-6 0-10-4-10-10l0-10-10 0c-6 0-10-4-10-10 0-6 4-10 10-10l10 0 0-63-10 0c-6 0-10-4-10-10 0-6 4-10 10-10l10 0 0-60-10 0c-6 0-10-4-10-10 0-6 4-10 10-10l10 0 0-60-10 0c-6 0-10-4-10-10 0-6 4-10 10-10l10 0 0-63-10 0c-6 0-10-4-10-10 0-6 4-10 10-10l10 0 0-63-10 0c-6 0-10-4-10-10 0-6 4-10 10-10l10 0 0-13c0-6 4-10 10-10 6 0 10 4 10 10l0 13 63 0 0-13c0-6 4-10 10-10 6 0 10 4 10 10l0 13 63 0 0-13c0-6 4-10 10-10 6 0 10 4 10 10l0 13 60 0 0-13c0-6 4-10 10-10 6 0 10 4 10 10l0 13 63 0 0-13c0-6 4-10 10-10 6 0 10 4 10 10l0 13 63 0 0-13c0-6 4-10 10-10 6 0 10 4 10 10l0 13 50 0c6 0 10 4 10 10 0 6-4 10-10 10z m-336 0l-63 0 0 206 63 0z m143 0l-63 0 0 286 63 0z m143 0l-63 0 0 369 63 0z"/>
<glyph glyph-name="033-document-1" unicode="&#36;" d="M162 395c-2 6-6 12-13 15l-17 8c-4 2-5 7-3 10 1 3 4 5 7 5l2 0c4 0 8-4 8-8l0-1 17 0 0 1c0 11-7 21-17 24l0 10-18 0 0-10c-13-4-21-18-17-32 3-6 7-11 13-15l17-8c4-2 6-7 4-10-1-3-4-4-7-4l-2 0c-5 0-8 3-8 7l0 1-18 0 0-1c0-11 8-21 18-24l0-10 18 0 0 10c13 4 20 18 16 32z m-60-139l150 0 0-18-150 0z m0-35l150 0 0-18-150 0z m0-36l105 0 0-17-105 0z m52 106l98 0 0-17-98 0z m45 124l159 0 0-18-159 0z m0-35l123 0 0-18-123 0z m53 70l106 0 0-17-106 0z m211-344l-49 0 35 111c13 42-7 87-47 105l0 102 44 0c5 0 9 4 9 9l0 44c0 19-16 35-36 35l-326 0c-20 0-36-16-36-35l0-336-35 0c-5 0-9-4-9-9l0-35c0-19 16-35 36-35l186 0c4-16 18-27 34-27l0-26c0-5 4-9 9-9l177 0c4 0 8 4 8 9l0 26c20 0 36 16 36 36 0 19-16 35-36 35z m-61 371c0 9 8 17 17 17 10 0 18-8 18-17l0-36-35 0z m13-185c18-18 25-45 17-70l0 1-37-117-66 0-31 118c-6 24 1 49 18 66l2 2c27 27 70 27 97 0z m-340 185c0 9 8 17 18 17l296 0c-3-5-5-11-5-17l0-149c-29 6-58-3-79-24l-2-1c-21-22-30-54-22-84l20-78-226 0z m160-398l-186 0c-10 0-18 8-18 18l0 27 275 0 5-18-42 0c-16 0-30-11-34-27z m211-61l-159 0 0 17 159 0z m17 35l-194 0c-10 0-17 8-17 18 0 9 7 17 17 17l194 0c10 0 18-8 18-17 0-10-8-18-18-18z m-247 397l18 0 0-17-18 0z m-97-159l18 0 0-17-18 0z m226-24l-10 14c-14-10-22-26-22-43 0-7 2-14 5-21l16 7c-7 15-2 33 11 43z m11 23l3-17c5 1 10 1 14 0l4 17c-7 2-14 2-21 0z"/>
<glyph glyph-name="034-auction" unicode="&#37;" d="M495 10l-9 43c0 4-4 7-8 7l-17 0 0 60c0 14-12 25-26 25l-230 0c-14 0-26-11-26-25l0-60-17 0c-4 0-7-3-8-7l-9-43c-1-4 2-9 7-10 0 0 1 0 2 0l333 0c4 0 8 4 8 9 0 0 0 1 0 1z m-299 110c0 4 4 8 9 8l230 0c5 0 9-4 9-8l0-60-248 0z m-32-103l5 26 302 0 5-26z m271 325c-8 7-19 9-29 5l-74 73-55 56c5 9 3 21-5 29-10 9-26 9-36 0l-97-97c-10-10-10-26 0-36 8-8 19-10 29-5l25-25-2-3c-8-8-11-20-7-31l-130-130c-10 4-22 2-30-5-10-10-10-26 0-36l37-37c10-10 26-10 36 0 7 8 9 20 5 29l130 131c11-4 23-1 32 7l2 2 31-31c-6-13 0-28 12-34 10-5 22-3 29 5l97 97c10 10 10 26 0 36z m-272 42c-3-3-8-3-12 0 0 0 0 0 0 0-3 3-3 9 0 12 0 0 0 0 0 0l36 36 61 61c3 3 9 3 12 0 3-4 3-9 0-12z m-78-272c-4-3-9-3-12 0l-36 37c-4 3-4 8 0 12 3 3 8 3 12 0l36-37c3-3 3-8 0-12z m6 31l-24 24 126 126 25-24z m161 136c-6-5-15-5-20 0 0 0 0 0 0 0l-29 29c-5 5-5 14 0 19l3 3 48-49z m56-28l-127 127 85 85 127-127z m115 67l-97-97c-3-3-8-4-12 0-3 3-3 8 0 12 0 0 0 0 0 0l97 97c1 1 4 2 6 2 5 0 8-4 8-8 0-3 0-5-2-6z m-185 69l15 15-12 12-15-15c-11-11-11-28 0-38l7-8 13 12-8 8c-4 4-4 10 0 14z m-3-276c-12 0-22-10-22-21l0-13 17 0 0 13c0 2 2 4 5 4l30 0 0 17z m17 316l13 12 12-12-12-12z"/>
<glyph glyph-name="034-loan" unicode="&#38;" d="M53 211c-6 0-10-4-10-10 0-6 4-10 10-10 6 0 10 4 10 10 0 6-4 10-10 10z m443-33c-11 7-24 9-36 5 0 0 0 0 0-1l-94-37c0 2 0 4 0 6 0 22-18 40-40 40l-65 0c-1 0-3 0-5 1l-52 30c-11 6-23 9-35 9l-66 0 0 10c0 6-4 10-10 10l-83 0c-6 0-10-4-10-10l0-180c0-6 4-10 10-10l83 0c6 0 10 4 10 10l0 10 8 0 95-39c19-7 38-11 58-11 23 0 45 5 65 14 0 0 0 0 0 0l159 76c15 6 24 20 24 35 0 13-6 25-16 32z m-413-107l-63 0 0 160 63 0z m397 58c0 0 0 0 0 0l-159-76c-18-8-37-12-57-12-17 0-34 3-51 10l-97 39c-1 1-2 1-4 1l-9 0 0 120 66 0c9 0 17-2 25-6l53-30c4-3 9-4 14-4l65 0c11 0 20-9 20-20 0-7-4-13-10-17l0 0c0 0-1-1-2-1-2-1-5-2-8-2l-102 0c-16 0-30-13-30-30 0-6 5-10 10-10 6 0 10 4 10 10 0 6 5 10 10 10l102 0c7 0 13 2 19 5l122 48c6 2 12 1 17-2 5-4 8-10 8-16 0-7-5-14-12-17z m-427 42c-6 0-10-4-10-10l0-60c0-6 4-10 10-10 6 0 10 4 10 10l0 60c0 6-4 10-10 10z m343 160c-33 0-60-27-60-60 0-33 27-60 60-60 33 0 60 27 60 60 0 33-27 60-60 60z m0-100c-22 0-40 18-40 40 0 22 18 40 40 40 22 0 40-18 40-40 0-22-18-40-40-40z m-40 260c-33 0-60-27-60-60 0-33 27-60 60-60 33 0 60 27 60 60 0 33-27 60-60 60z m0-100c-22 0-40 18-40 40 0 22 18 40 40 40 22 0 40-18 40-40 0-22-18-40-40-40z m-120-20c-33 0-60-27-60-60 0-33 27-60 60-60 33 0 60 27 60 60 0 33-27 60-60 60z m0-100c-22 0-40 18-40 40 0 22 18 40 40 40 22 0 40-18 40-40 0-22-18-40-40-40z"/>
<glyph glyph-name="035-document" unicode="&#39;" d="M397 222c-47 31-111 18-142-30-10-16-16-36-16-56 0-19 6-39 16-55l15 9c-26 39-15 92 25 118 39 26 92 15 118-25 26-39 14-92-25-118-28-18-65-18-93 0l-10-14c48-31 111-18 142 30 31 47 18 110-30 141z m-15-58l-58-58-19 19-12-12 25-25c2-2 4-3 6-3 2 0 5 1 6 3l64 64z m-305 58l128 0 0-17-128 0z m51 34l94 0 0-17-94 0z m-51 43l179 0 0-17-179 0z m51 34l205 0 0-17-205 0z m-51-188l111 0 0-17-111 0z m51 34l60 0 0-17-60 0z m-51-111l128 0 0-17-128 0z m51 34l60 0 0-17-60 0z m110 305c-2 6-7 12-13 15l-16 8c-4 2-5 6-3 10 1 2 3 4 6 4l3 0c4 0 7-4 7-8l0-1 17 0 0 1c0 11-7 20-17 24l0 9-17 0 0-9c-13-4-20-18-16-31 2-6 6-11 12-14l17-9c3-1 5-6 3-9-1-3-4-4-6-4l-3 0c-4 0-7 3-7 7l0 1-17 0 0-1c0-11 7-20 17-23l0-10 17 0 0 10c13 4 20 17 16 30z m151-143c-5 2-9 3-14 5l0 166 43 0c5 0 9 4 9 9l0 34c0 19-16 34-35 34l-324 0c-19 0-34-15-34-34l0-461c0-5 4-9 9-9l251 0c71-26 149 10 175 81 27 71-10 149-80 175z m-14 214c0 9 8 17 17 17 10 0 18-8 18-17l0-26-35 0z m-324-452l0 452c0 9 8 17 17 17l295 0c-3-5-5-11-5-17l0-206c-74 9-143-43-152-118-7-50 15-99 56-128z m290-9c-66 0-119 54-119 120 0 65 53 119 119 119 66 0 120-54 120-119 0-66-54-120-120-120z m-247 316l17 0 0-17-17 0z m0-77l17 0 0-17-17 0z m0-77l17 0 0-17-17 0z m0-77l17 0 0-17-17 0z"/>
<glyph glyph-name="035-truck" unicode="&#40;" d="M322 256c-6 0-10-4-10-10 0-6 4-10 10-10 6 0 10 4 10 10 0 6-4 10-10 10z m-179 60c-6 0-10 4-10 10 0 6 4 10 10 10 4 0 7-2 11-5 4-4 10-4 14 0 4 4 4 10 0 14-5 5-10 8-15 9l0 12c0 6-4 10-10 10-6 0-10-4-10-10l0-12c-12-4-20-15-20-28 0-17 13-30 30-30 6 0 10-4 10-10 0-6-4-10-10-10-4 0-9 3-13 8-4 4-10 4-14 1-4-4-5-10-1-14 5-7 11-11 18-13l0-12c0-6 4-10 10-10 6 0 10 4 10 10l0 12c12 4 20 15 20 28 0 17-13 30-30 30z m-30-140c-17 0-30-13-30-30 0-17 13-30 30-30 17 0 30 13 30 30 0 17-13 30-30 30z m0-40c-6 0-10 4-10 10 0 6 4 10 10 10 6 0 10-4 10-10 0-6-4-10-10-10z m369 0c17 0 30 13 30 30l0 20c0 13-8 24-20 28l0 52c0 28-22 50-50 50-1 0-3 0-4 1-1 1-2 2-3 3l-33 52c-9 15-25 24-42 24l-71 0 0 10c0 17-13 30-30 30l-229 0c-17 0-30-13-30-30l0-240c0-17 13-30 30-30l14 0c2-16 9-29 20-40l-54 0c-6 0-10-4-10-10 0-6 4-10 10-10l492 0c6 0 10 4 10 10 0 6-4 10-10 10l-61 0c11 11 18 24 20 40z m-462 270c0 6 4 10 10 10l229 0c6 0 10-4 10-10l0-210-107 0c-13 13-31 20-49 20-18 0-36-7-49-20l-44 0z m249-230l0-20-87 0c-1 7-3 14-6 20z m-225-20l-14 0c-6 0-10 4-10 10l0 10 30 0c-3-6-5-13-6-20z m69-60c-28 0-50 22-50 50 0 12 4 24 12 33 1 0 1 1 1 1 10 10 23 16 37 16 14 0 28-6 37-17 0 0 0 0 1 0 8-9 12-21 12-33 0-28-22-50-50-50z m49 0c11 11 18 24 20 40l141 0c2-16 9-29 20-40z m230 0c-28 0-50 22-50 50 0 28 22 50 50 50 28 0 50-22 50-50 0-28-22-50-50-50z m0 120c-35 0-64-26-69-60l-34 0 0 220 71 0c10 0 20-5 25-14l33-53c3-4 6-7 10-9 5-3 9-4 14-4 13 0 24-8 28-20l-8 0c-6 0-10-4-10-10 0-6 4-10 10-10l10 0 0-20-10 0c-6 0-10-4-10-10 0-6 4-10 10-10l10 0 0-10c0-6 4-10 10-10 6 0 10-4 10-10l0-20c0-6-4-10-10-10l-21 0c-5 34-34 60-69 60z m0-40c-17 0-30-13-30-30 0-17 13-30 30-30 17 0 30 13 30 30 0 17-13 30-30 30z m0-40c-6 0-10 4-10 10 0 6 4 10 10 10 6 0 10-4 10-10 0-6-4-10-10-10z m18 156l-40 60c-2 2-5 4-8 4l-40 0c-6 0-10-4-10-10l0-60c0-6 4-10 10-10l80 0c4 0 7 2 9 5 2 4 1 7-1 11z m-78 4l0 40 25 0 26-40z m70-40l-40 0c-6 0-10-4-10-10 0-6 4-10 10-10l40 0c6 0 10 4 10 10 0 6-4 10-10 10z"/>
<glyph glyph-name="036-calculator" unicode="&#41;" d="M461 375l0 26c0 5-4 9-9 9l-17 0 0 25 43 0c5 0 8 4 8 9l0 34c0 19-15 34-34 34l-273 0c-19 0-34-15-34-34l0-60-119 0c-5 0-9-4-9-8l0-401c0-5 4-9 9-9l307 0c5 0 8 4 8 9l0 128 52 0 0-60c0-1 0-2 0-3l0 0 26-68c1-5 6-7 11-5 2 0 4 2 5 5l25 68 0 0c1 1 1 2 1 3l0 281c9 0 17-7 17-17l0-111 17 0 0 111c0 19-15 34-34 34z m-26 103c0 9 8 17 17 17 10 0 17-8 17-17l0-26-34 0z m-111-461l-290 0 0 384 290 0z m69 384l0-247-52 0 0 256c0 4-3 8-8 8l-171 0 0 60c0 9 8 17 17 17l244 0c-3-5-5-11-5-17l0-68-17 0c-5 0-8-4-8-9z m34-368l-14 35 27 0z m17 52l-34 0 0 239 34 0z m0 256l-34 0 0 17 34 0z m0 34l-34 0 0 18 34 0z m-154 0l-222 0c-4 0-8-3-8-8l0-51c0-5 4-9 8-9l222 0c5 0 9 4 9 9l0 51c0 5-4 8-9 8z m-8-51l-205 0 0 34 205 0z m-163-42l-51 0c-4 0-8-4-8-9l0-51c0-5 4-9 8-9l51 0c5 0 9 4 9 9l0 51c0 5-4 9-9 9z m-8-52l-34 0 0 35 34 0z m94 52l-51 0c-5 0-9-4-9-9l0-51c0-5 4-9 9-9l51 0c5 0 8 4 8 9l0 51c0 5-3 9-8 9z m-9-52l-34 0 0 35 34 0z m94 52l-51 0c-5 0-9-4-9-9l0-51c0-5 4-9 9-9l51 0c5 0 9 4 9 9l0 51c0 5-4 9-9 9z m-8-52l-35 0 0 35 35 0z m-163-34l-51 0c-4 0-8-4-8-8l0-51c0-5 4-9 8-9l51 0c5 0 9 4 9 9l0 51c0 4-4 8-9 8z m-8-51l-34 0 0 34 34 0z m94 51l-51 0c-5 0-9-4-9-8l0-51c0-5 4-9 9-9l51 0c5 0 8 4 8 9l0 51c0 4-3 8-8 8z m-9-51l-34 0 0 34 34 0z m-77-34l-51 0c-4 0-8-4-8-9l0-51c0-5 4-8 8-8l51 0c5 0 9 3 9 8l0 51c0 5-4 9-9 9z m-8-51l-34 0 0 34 34 0z m94 51l-51 0c-5 0-9-4-9-9l0-51c0-5 4-8 9-8l51 0c5 0 8 3 8 8l0 51c0 5-3 9-8 9z m-9-51l-34 0 0 34 34 0z m94 136l-51 0c-5 0-9-4-9-8l0-137c0-5 4-8 9-8l51 0c5 0 9 3 9 8l0 137c0 4-4 8-9 8z m-8-136l-35 0 0 119 35 0z"/>
<glyph glyph-name="036-security" unicode="&#42;" d="M346 63c-6 0-10-4-10-10 0-6 4-10 10-10 6 0 10 4 10 10 0 6-4 10-10 10z m94 89c-10 15-24 27-41 33l-73 29c19 19 30 45 30 72 0 11-2 21-5 31 3 2 5 5 5 9l0 31 17 35 17 8c4 2 6 5 6 9l0 30c0 4-3 8-7 9l-28 10-69 52c-2 1-4 2-6 2l-60 0c-2 0-4-1-6-2l-69-52-28-10c-4-1-7-5-7-9l0-30c0-4 2-7 6-9l17-8 17-35 0-31c0-4 2-7 5-9-3-10-5-20-5-31 0-27 11-53 30-72l-73-29c-17-6-31-18-41-33-11-15-16-32-16-50l0-92c0-6 4-10 10-10l180 0c0 0 0 0 0 0 0 0 0 0 0 0l20 0c0 0 0 0 0 0 0 0 0 0 0 0l180 0c6 0 10 4 10 10l0 92c0 18-5 35-16 50z m-83 28l-61-101 0 30c0 7-2 13-6 18l-18 24c9 5 14 14 14 25l0 15c7 2 15 5 21 9z m-202 223c-1 2-3 4-5 5l-14 7 0 17 23 8c1 0 2 0 3 1l67 51 54 0 67-51c1-1 2-1 3-1l23-8 0-17-14-7c-2-1-4-3-5-5l-17-34-168 0z m21-54l160 0 0-16-26-8c-18-6-36-9-54-9-9 0-19 1-28 2-9 2-18 4-26 7l-20 6c-1 1-2 2-3 3-1 0-2 0-3 1z m0-63c0 9 1 17 4 25l15-5c10-3 20-6 30-8 10-1 21-2 31-2 20 0 41 3 60 10l16 5c3-8 4-16 4-25 0-27-13-51-35-66 0 0 0 0-1-1-8-5-17-9-26-11-12-3-24-3-36 0-9 2-18 6-27 12-22 15-35 39-35 66z m90-99l0-11c0-6-4-10-10-10-3 0-5 1-7 3-2 2-3 4-3 7l0 11c3-1 7-1 10-1 3 0 7 0 10 1z m-61 13c6-4 14-7 21-9l0-15c0-8 3-16 9-21 1-2 3-3 5-4l-18-24c-4-5-6-11-6-18l0-30-61 101z m-129-180l0 82c0 29 17 54 44 65l16 6 81-134 11-19z m200 26l-16-26-8 0-16 26 0 63c0 2 1 5 2 6l18 24 18-24c1-1 2-4 2-6z m8-26l92 153 16-6c27-11 44-36 44-65l0-82z m-28 449c-22 0-40-18-40-40 0-22 18-40 40-40 22 0 40 18 40 40 0 22-18 40-40 40z m0-60c-11 0-20 9-20 20 0 11 9 20 20 20 11 0 20-9 20-20 0-11-9-20-20-20z m150-346l-20 0c-6 0-10-4-10-10 0-6 4-10 10-10l20 0c6 0 10 4 10 10 0 6-4 10-10 10z"/>
<glyph glyph-name="037-safebox" unicode="&#43;" d="M166 366c-6 0-10-4-10-10 0-6 4-10 10-10 6 0 10 4 10 10 0 6-4 10-10 10z m300 146l-420 0c-17 0-30-13-30-30l0-409c0-17 13-30 30-30l10 0 0-33c0-6 4-10 10-10l100 0c6 0 10 4 10 10l0 33 160 0 0-33c0-6 4-10 10-10l100 0c6 0 10 4 10 10l0 33 10 0c17 0 30 13 30 30l0 409c0 17-13 30-30 30z m-310-492l-80 0 0 23 80 0z m280 0l-80 0 0 23 80 0z m40 53c0-6-4-10-10-10l-420 0c-6 0-10 4-10 10l0 409c0 6 4 10 10 10l420 0c6 0 10-4 10-10z m-30 233c6 0 10 4 10 10l0 80c0 6-4 10-10 10l-10 0 0 33c0 6-4 10-10 10l-340 0c-6 0-10-4-10-10l0-323c0-6 4-10 10-10l340 0c6 0 10 4 10 10l0 30 10 0c6 0 10 4 10 10l0 80c0 6-4 10-10 10l-10 0 0 60z m-30-180l-320 0 0 303 320 0 0-23-10 0c-6 0-10-4-10-10l0-80c0-6 4-10 10-10l10 0 0-60-10 0c-6 0-10-4-10-10l0-80c0-6 4-10 10-10l10 0z m20 40l-20 0 0 60 20 0z m-20 160l0 60 20 0 0-60z m-50 80l-240 0c-6 0-10-4-10-10l0-80c0-6 4-10 10-10l240 0c6 0 10 4 10 10l0 80c0 6-4 10-10 10z m-10-80l-220 0 0 60 220 0z m-30 40l-120 0c-6 0-10-4-10-10 0-6 4-10 10-10l120 0c6 0 10 4 10 10 0 6-4 10-10 10z m-160-80l-40 0c-6 0-10-4-10-10l0-40c0-6 4-10 10-10l40 0c6 0 10 4 10 10l0 40c0 6-4 10-10 10z m-10-40l-20 0 0 20 20 0z m110 40l-40 0c-6 0-10-4-10-10l0-40c0-6 4-10 10-10l40 0c6 0 10 4 10 10l0 40c0 6-4 10-10 10z m-10-40l-20 0 0 20 20 0z m110 40l-40 0c-6 0-10-4-10-10l0-40c0-6 4-10 10-10l40 0c6 0 10 4 10 10l0 40c0 6-4 10-10 10z m-10-40l-20 0 0 20 20 0z m10-40l-40 0c-6 0-10-4-10-10l0-40c0-6 4-10 10-10l40 0c6 0 10 4 10 10l0 40c0 6-4 10-10 10z m-10-40l-20 0 0 20 20 0z m-90 40l-40 0c-6 0-10-4-10-10l0-40c0-6 4-10 10-10l40 0c6 0 10 4 10 10l0 40c0 6-4 10-10 10z m-10-40l-20 0 0 20 20 0z m-90 40l-40 0c-6 0-10-4-10-10l0-40c0-6 4-10 10-10l40 0c6 0 10 4 10 10l0 40c0 6-4 10-10 10z m-10-40l-20 0 0 20 20 0z"/>
<glyph glyph-name="038-money-3" unicode="&#44;" d="M379 352c-6 0-10-4-10-10 0-6 4-10 10-10 6 0 10 4 10 10 0 6-4 10-10 10z m-246 0c-6 0-10-4-10-10 0-6 4-10 10-10 6 0 10 4 10 10 0 6-4 10-10 10z m123 0c-6 0-10 4-10 10 0 6 4 10 10 10 4 0 7-2 11-5 4-4 10-4 14 0 4 4 4 10 0 14-5 5-10 8-15 9l0 12c0 6-4 10-10 10-6 0-10-4-10-10l0-12c-12-4-20-15-20-28 0-17 13-30 30-30 6 0 10-4 10-10 0-6-4-10-10-10-4 0-9 3-13 8-4 4-10 4-14 1-4-4-5-10-1-14 5-7 11-11 18-13l0-12c0-6 4-10 10-10 6 0 10 4 10 10l0 12c12 4 20 15 20 28 0 17-13 30-30 30z m246 160l-492 0c-6 0-10-4-10-10l0-492c0-6 4-10 10-10l492 0c6 0 10 4 10 10l0 492c0 6-4 10-10 10z m-10-492l-472 0 0 23 472 0z m0 43l-472 0 0 23 472 0z m0 43l-472 0 0 23 472 0z m0 43l-472 0 0 23 472 0z m0 43l-472 0 0 300 472 0z m-33 280l-406 0c-6 0-10-4-10-10l0-240c0-6 4-10 10-10l406 0c6 0 10 4 10 10l0 240c0 6-4 10-10 10z m-396-20l39 0c-2-10-7-18-14-25-7-7-15-12-25-14z m0-220l0 39c10-2 18-7 25-14 7-7 12-15 14-25z m59 0c-2 15-9 29-20 40-10 10-24 17-39 19l0 41 30 0c6 0 10 4 10 10 0 6-4 10-10 10l-30 0 0 41c15 2 29 9 40 20 10 10 17 24 19 39l86 0c-6-5-12-12-17-20-16-24-25-56-25-90 0-34 9-66 25-90 5-8 11-15 17-20z m134 0c-18 0-35 11-48 31-14 21-22 49-22 79 0 30 8 58 22 79 13 20 30 31 48 31 18 0 35-11 48-31 14-21 22-49 22-79 0-30-8-58-22-79-13-20-30-31-48-31z m193 0l-39 0c2 10 7 18 14 25 7 7 15 12 25 14z m0 120l-30 0c-6 0-10-4-10-10 0-6 4-10 10-10l30 0 0-41c-15-2-29-9-40-20-10-10-17-24-19-39l-86 0c6 5 12 12 17 20 16 24 25 56 25 90 0 34-9 66-25 90-5 8-11 15-17 20l86 0c4-31 28-55 59-59z m0 61c-20 4-35 19-39 39l39 0z"/>
<glyph glyph-name="039-gold" unicode="&#45;" d="M511 110l-35 87c-4 12-15 19-28 19l-22 0-33 81c-4 12-15 19-28 19l-22 0-33 81c-4 12-15 19-28 19l-52 0c-13 0-24-7-28-19l-33-81-22 0c-13 0-24-7-28-19l-33-81-22 0c-13 0-24-7-28-19l-35-87c-2-3-1-7 1-10 2-2 5-4 8-4l492 0c3 0 6 2 8 4 2 3 3 7 1 10z m-146 186c5 0 8-2 10-6l29-74-133 0 29 74c2 4 5 6 10 6z m-109-63l-25 63 50 0z m-36 157c2 4 5 6 10 6l52 0c5 0 8-2 10-6l29-74-130 0z m-83-100c2 4 5 6 10 6l55 0c5 0 8-2 10-6l29-74-133 0z m-112-174l29 74c2 4 5 6 10 6l55 0c5 0 8-2 10-6 0 0 0 0 0-1l32-73z m151 16l-28 64 53 0z m15-16l29 74c2 4 5 6 10 6l52 0c5 0 8-2 10-6l29-74z m120 80l53 0-28-64z m40-80l32 73c0 1 0 1 0 1 2 4 5 6 10 6l55 0c5 0 8-2 10-6l29-74z m-85 260l-20 0c-6 0-10-4-10-10 0-6 4-10 10-10l20 0c6 0 10 4 10 10 0 6-4 10-10 10z"/>
<glyph glyph-name="040-card" unicode="&#46;" d="M256 63c-6 0-10-4-10-10 0-6 4-10 10-10 6 0 10 4 10 10 0 6-4 10-10 10z m-40 343c-6 0-10-4-10-10 0-6 4-10 10-10 6 0 10 4 10 10 0 6-4 10-10 10z m140-343l-60 0c-6 0-10-4-10-10 0-6 4-10 10-10l60 0c6 0 10 4 10 10 0 6-4 10-10 10z m-100 409c-6 0-10-4-10-10l0-66c0-6 4-10 10-10 6 0 10 4 10 10l0 66c0 6-4 10-10 10z m-40 0c-6 0-10-4-10-10l0-23c0-6 4-10 10-10 6 0 10 4 10 10l0 23c0 6-4 10-10 10z m240 20l-132 0c-4 12-15 20-28 20l-160 0c-13 0-24-8-28-20l-52 0c-17 0-30-13-30-30l0-409c0-17 13-30 30-30l150 0 0-13c0-6 4-10 10-10l180 0c6 0 10 4 10 10l0 13 50 0c17 0 30 13 30 30l0 409c0 17-13 30-30 30z m-146-201c0 0 0 0 0-1 0 0 0 0 0 0 1 0 1 0 1 0 0 0 0 0 0 0 0 0 1-1 1-1 0 0 0 0 0 0 0 0 0 0 1 0 0 0 0 0 0 0 0 0 0 0 1 0 0 0 0 0 0 0 0 0 0 0 1 0 0 0 0-1 0-1 1 0 1 0 2 0 0 0 0 1 0 1 1 0 1 0 1 0 0 0 0 0 0 0 1 0 1 0 1 0 0 0 0 0 0 0 1 0 1 0 1 0 0 0 0 0 0 0 0 0 1 1 1 1 0 0 0 0 0 0 0 0 0 0 1 0 0 0 0 0 0 0 0 0 0 1 0 1 1 0 1 0 1 0 0 0 0 0 0 0 0 0 0 0 0 0 0 1 1 1 1 1 0 0 0 0 0 0 0 1 0 1 0 1 0 0 0 0 1 0 0 0 0 1 0 1 0 0 0 0 0 0 0 0 0 0 0 1 0 0 0 0 0 0 0 0 1 0 1 1 0 0 0 0 0 0 0 0 0 0 0 0 0 1 0 1 0 1 0 0 0 0 0 0 0 1 0 1 0 1 0 0 0 0 0 0l0 86c37-35 50-80 50-111 0-19 0-38-5-65 0 0 0 0 0 0-4-20-6-41-6-63l0-42-118 0 0 25c0 0 0 0 0 0 0 7-4 15-10 21l-6 6c-13 14-22 32-23 51l66 0c5-16 13-32 24-45 2-3 5-4 8-4 2 0 4 1 6 2 5 4 5 10 2 14-11 14-19 29-23 46-3 11-5 22-5 34 0 0 0 0 0 1 0 2-1 5-3 7l-61 61c-4 4-6 9-6 14 0 5 2 10 6 14 4 4 9 6 14 6 5 0 10-2 14-6l59-59c0 0 0 0 1 0z m-134 201l120 0c6 0 10-4 10-10l0-159-42 41c-7 8-17 12-28 12-11 0-21-4-28-12-8-7-12-17-12-28 0-11 4-21 12-28l58-59c0-7 1-15 2-23l-92 0z m-50-10c0 6 4 10 10 10l20 0 0-266-20 0c-6 0-10 4-10 10z m-80-20c0 6 4 10 10 10l50 0 0-23-60 0z m160-419l-150 0c-6 0-10 4-10 10l0 10 160 0z m0 50l0-10-160 0 0 346 60 0 0-193c0-17 13-30 30-30l52 0c1-24 12-48 29-65l6-6c2-3 4-5 4-7l0-25-11 0c-6 0-10-4-10-10z m180-73l-160 0 0 63 160 0z m80 33c0-6-4-10-10-10l-50 0 0 20 60 0z m0 30l-60 0 0 10c0 6-4 10-10 10l-11 0 0 42c0 21 2 40 5 59 0 0 0 0 0 0 6 29 6 49 6 69 0 40-18 97-70 138l0 18 140 0z m0 366l-140 0 0 23 130 0c6 0 10-4 10-10z"/>
<glyph glyph-name="041-money-2" unicode="&#47;" d="M196 452c-6 0-10-4-10-10 0-6 4-10 10-10 6 0 10 4 10 10 0 6-4 10-10 10z m60-80c-6 0-10 4-10 10 0 6 4 10 10 10 4 0 7-2 11-5 4-4 10-4 14 0 4 4 4 10 0 14-5 5-10 8-15 9l0 12c0 6-4 10-10 10-6 0-10-4-10-10l0-12c-12-4-20-15-20-28 0-17 13-30 30-30 6 0 10-4 10-10 0-6-4-10-10-10-4 0-9 3-13 8-4 4-10 4-14 1-4-4-5-10-1-14 5-7 11-11 18-13l0-12c0-6 4-10 10-10 6 0 10 4 10 10l0 12c12 4 20 15 20 28 0 17-13 30-30 30z m216-6c-22 0-40-18-40-40l0-71c-13 3-28 0-38-11l-67-67c-10-9-15-22-15-35l0-59-10 0c-6 0-10-4-10-10l0-63c0-6 4-10 10-10l140 0c6 0 10 4 10 10l0 63c0 6-4 10-10 10l-10 0 0 5c0 2 1 5 3 7l62 62c10 10 15 22 15 36l0 133c0 22-18 40-40 40z m-40-346l-120 0 0 43 120 0z m60 173c0-8-3-16-9-22l-62-62c-6-6-9-13-9-21l0-5-80 0 0 59c0 8 3 15 9 21l67 67c7 8 19 8 27 1 0 0 0 0 0 0 1 0 1-1 1-1 4-4 6-9 6-14 0-5-2-10-6-14l-50-50c-3-4-3-10 0-14 4-4 11-4 15 0l49 50c8 7 12 17 12 28 0 10-4 19-10 26l0 84c0 11 9 20 20 20 11 0 20-9 20-20z m-282-110l-10 0 0 59c0 13-5 26-15 35l-67 67c-10 11-25 14-38 11l0 71c0 22-18 40-40 40-22 0-40-18-40-40l0-133c0-14 5-26 15-36l62-62c2-2 3-5 3-7l0-5-10 0c-6 0-10-4-10-10l0-63c0-6 4-10 10-10l140 0c6 0 10 4 10 10l0 63c0 6-4 10-10 10z m-181 88c-6 6-9 14-9 22l0 133c0 11 9 20 20 20 11 0 20-9 20-20l0-84c-6-7-10-16-10-26 0-11 4-21 12-28l50-50c4-4 10-4 14 0 4 4 4 10 0 14l-50 50c-4 4-6 9-6 14 0 5 2 10 6 14 0 0 0 1 1 1l0 0c8 7 20 7 27-1l67-67c6-6 9-13 9-21l0-59-80 0 0 5c0 8-3 15-9 21z m171-151l-120 0 0 43 120 0z m56 492c-83 0-150-67-150-150 0-83 67-150 150-150 83 0 150 67 150 150 0 83-67 150-150 150z m0-280c-72 0-130 58-130 130 0 72 58 130 130 130 72 0 130-58 130-130 0-72-58-130-130-130z m69 216c-26 21-60 29-93 21-6-1-9-6-8-12 1-5 6-8 12-7 27 6 55-1 76-18 22-17 34-43 34-70 0-50-40-90-90-90-50 0-90 40-90 90 0 15 4 30 11 42 2 5 0 11-4 14-5 3-11 1-14-4-8-16-13-34-13-52 0-61 49-110 110-110 61 0 110 49 110 110 0 33-15 65-41 86z"/>
<glyph glyph-name="042-money-1" unicode="&#58;" d="M176 406c-6 0-10-4-10-10 0-6 4-10 10-10 6 0 10 4 10 10 0 6-4 10-10 10z m100-140l-10 0 0 40 10 0c6 0 10-4 10-10 0-6 4-10 10-10 6 0 10 4 10 10 0 17-13 30-30 30l-10 0 0 10c0 6-4 10-10 10-6 0-10-4-10-10l0-10-10 0c-17 0-30-13-30-30l0-20c0-17 13-30 30-30l10 0 0-40-10 0c-6 0-10 4-10 10 0 6-4 10-10 10-6 0-10-4-10-10 0-17 13-30 30-30l10 0 0-10c0-6 4-10 10-10 6 0 10 4 10 10l0 10 10 0c17 0 30 13 30 30l0 20c0 17-13 30-30 30z m-30 0l-10 0c-6 0-10 4-10 10l0 20c0 6 4 10 10 10l10 0z m40-50c0-6-4-10-10-10l-10 0 0 40 10 0c6 0 10-4 10-10z m-30 170c-72 0-130-58-130-130 0-72 58-130 130-130 72 0 130 58 130 130 0 72-58 130-130 130z m0-240c-61 0-110 49-110 110 0 61 49 110 110 110 61 0 110-49 110-110 0-61-49-110-110-110z m246 120l-33 0c-1 25-7 49-17 72-11 25-26 48-46 68-20 20-43 35-68 46-23 10-47 16-72 17l0 33c0 6-4 10-10 10-6 0-10-4-10-10l0-33c-25-1-49-7-72-17-25-11-48-26-68-46-20-20-35-43-46-68-10-23-16-47-17-72l-33 0c-6 0-10-4-10-10 0-6 4-10 10-10l33 0c1-25 7-49 17-72 11-25 26-48 46-68 20-20 43-35 68-46 23-10 47-16 72-17l0-33c0-6 4-10 10-10 6 0 10 4 10 10l0 33c25 1 49 7 72 17 25 11 48 26 68 46 20 20 35 43 46 68 10 23 16 47 17 72l33 0c6 0 10 4 10 10 0 6-4 10-10 10z m-256-203c-97 6-177 86-183 183l23 0c5-86 74-155 160-160z m10 43c-83 0-150 67-150 150 0 41 16 79 46 108 4 4 4 10 0 14-4 4-10 4-14 0-31-30-49-69-52-112l-23 0c6 97 86 177 183 183l0-23c-12-1-24-3-35-6-6-2-9-7-7-12 1-6 7-9 12-7 13 3 26 5 40 5 83 0 150-67 150-150 0-83-67-150-150-150z m10-43l0 23c86 5 155 74 160 160l23 0c-6-97-86-177-183-183z m160 203c-5 86-74 155-160 160l0 23c97-6 177-86 183-183z"/>
<glyph glyph-name="043-stamp" unicode="&#59;" d="M176 123c-6 0-10-4-10-10 0-6 4-10 10-10 6 0 10 4 10 10 0 6-4 10-10 10z m280-40l-11 0c-5 45-43 80-89 80l-38 0c0 22 1 46 5 69 0 2 1 3 1 4 0 0 0 0 0 0 3 23 8 44 14 63 2 5 4 11 6 16l13 33c6 15 9 30 9 44l0 0c0 66-49 120-110 120-61 0-110-54-110-120l0 0c0-14 3-29 9-44l13-34c2-5 4-10 5-15 7-19 12-40 15-62 0-1 0-1 0-1 0-1 1-2 1-4 4-23 5-47 5-69l-38 0c-24 0-47-9-64-26-14-15-23-34-25-54l-11 0c-17 0-30-13-30-30l0-23c0-17 13-30 30-30l400 0c17 0 30 13 30 30l0 23c0 17-13 30-30 30z m-266 229c-1 3-2 6-3 10l-14 34c-4 12-7 25-7 36l0 0c0 55 40 100 90 100 50 0 90-45 90-100l0 0c0-11-3-24-8-36l-12-34c-2-3-3-7-4-10z m17-66c-3 16-6 31-11 46l119 0c-4-15-7-30-10-46z m95-20c-3-21-4-43-4-63l-84 0c0 20-1 42-4 63z m-195-104c13 14 30 21 49 21l200 0c35 0 64-26 69-60l-338 0c2 15 9 29 20 39z m359-92c0-6-4-10-10-10l-400 0c-6 0-10 4-10 10l0 23c0 6 4 10 10 10l400 0c6 0 10-4 10-10z m-130 93l-120 0c-6 0-10-4-10-10 0-6 4-10 10-10l120 0c6 0 10 4 10 10 0 6-4 10-10 10z"/>
</font>
</defs>
</svg>
